Sign Up   |   Sign In  
Criminal MindsThe ChiBad DinosaursKim's VideoBirdemic 2: The ResurrectionCaptivating the KingThe Loud HousePower Book II: GhostI Saw the TV GlowSpecies IIUltraman: RisingWWE NXTThe BoysThe Bold and the BeautifulThe GrabHannah Einbinder: Everything Must GoExhumaWalkerEvilWWE RawBratsMower MinionsNotas sobre un veranoThe Daily ShowSurvivor

Announcements

05/29

2024

No

Comments

Room 104 S04E01 The Murderer 1080p AMZN WEB-DL DD 5 1 H 264-NTb
[RR/NF/CU]
Size: 1.9GB mkv H264 (HIGH) / EAC3  HD  1920x1080

Room 104
File Information
[img]http://lookpic.com/cdn/i2/t/0529202401210553-1.jpg[/img]
[img]http://lookpic.com/cdn/i2/t/0529202401210553-2.jpg[/img]
[img]http://lookpic.com/cdn/i2/t/0529202401210553-3.jpg[/img]

General
Unique ID                                : 330156177540648915361140620355133686208 (0xF861C45143B020BDBF1990B0B5D2C1C0)
Complete name                            : Room 104 S04E01 The Murderer 1080p AMZN WEB-DL DD 5 1 H 264-NTb.mkv
Format                                   : Matroska
Format version                           : Version 4
File size                                : 1.92 GiB
Duration                                 : 27 min 25 s
Overall bit rate                         : 10.0 Mb/s
Frame rate                               : 23.976 FPS
Writing application                      : mkvmerge v47.0.0 ('Black Flag') 64-bit
Writing library                          : libebml v1.3.10 + libmatroska v1.5.2

Video
ID                                       : 1
Format                                   : AVC
Format/Info                              : Advanced Video Codec
Format profile                           : High@L4
Format settings                          : CABAC / 4 Ref Frames
Format settings, CABAC                   : Yes
Format settings, Reference frames        : 4 frames
Codec ID                                 : V_MPEG4/ISO/AVC
Duration                                 : 27 min 25 s
Bit rate mode                            : Constant
Bit rate                                 : 9 397 kb/s
Nominal bit rate                         : 10 000 kb/s
Width                                    : 1 920 pixels
Height                                   : 1 080 pixels
Display aspect ratio                     : 16:9
Frame rate mode                          : Constant
Frame rate                               : 23.976 (24000/1001) FPS
Color space                              : YUV
Chroma subsampling                       : 4:2:0
Bit depth                                : 8 bits
Scan type                                : Progressive
Bits/(Pixel*Frame)                       : 0.189
Stream size                              : 1.80 GiB (94%)
Default                                  : Yes
Forced                                   : No
Color range                              : Limited
Color primaries                          : BT.709
Transfer characteristics                 : BT.709
Matrix coefficients                      : BT.709

Audio
ID                                       : 2
Format                                   : E-AC-3
Format/Info                              : Enhanced AC-3
Commercial name                          : Dolby Digital Plus
Codec ID                                 : A_EAC3
Duration                                 : 27 min 25 s
Bit rate mode                            : Constant
Bit rate                                 : 640 kb/s
Channel(s)                               : 6 channels
Channel layout                           : L R C LFE Ls Rs
Sampling rate                            : 48.0 kHz
Frame rate                               : 31.250 FPS (1536 SPF)
Compression mode                         : Lossy
Stream size                              : 126 MiB (6%)
Language                                 : English
Service kind                             : Complete Main
Default                                  : Yes
Forced                                   : No

Text #1
ID                                       : 3
Format                                   : UTF-8
Codec ID                                 : S_TEXT/UTF8
Codec ID/Info                            : UTF-8 Plain Text
Duration                                 : 27 min 14 s
Bit rate                                 : 59 b/s
Frame rate                               : 0.263 FPS
Count of elements                        : 430
Stream size                              : 11.9 KiB (0%)
Language                                 : English
Default                                  : No
Forced                                   : No

Text #2
ID                                       : 4
Format                                   : UTF-8
Codec ID                                 : S_TEXT/UTF8
Codec ID/Info                            : UTF-8 Plain Text
Duration                                 : 27 min 14 s
Bit rate                                 : 60 b/s
Frame rate                               : 0.269 FPS
Count of elements                        : 440
Stream size                              : 12.0 KiB (0%)
Title                                    : SDH
Language                                 : English
Default                                  : No
Forced                                   : No



Download
File Container: MKV
Video/Audio Codec: H264 (HIGH) EAC3
Video Resolution: 1920x1080
Please Login to post a comment.
If you don't have any account, please Register.
  • Subscribe my Feeds
  • Facebook
Encoding Queue:  x264  x265

Latest Episodes

Popular Movies and TV Shows

  • Criminal Minds
  • The Chi
  • Bad Dinosaurs
  • Kim's Video
  • Birdemic 2: The Resurrection
  • Captivating the King
  • The Loud House
  • Power Book II: Ghost
  • I Saw the TV Glow
  • Species II
  • Ultraman: Rising
  • WWE NXT
  • The Boys
  • The Bold and the Beautiful
  • The Grab
  • Hannah Einbinder: Everything Must Go
  • Exhuma
  • Walker
  • Evil
  • WWE Raw
  • Brats
  • Mower Minions
  • Notas sobre un verano
  • The Daily Show
  • Survivor

Recent Comments

  • waanaabe: Does anyone have season 1 and 2 of "The Mire"? here is just season 3 of this polish series...
  • Rmed:

    Links are dead. Re-upload please?

  • mentalityx:

    Rad bloke.

  • mentalityx:

    Thx bloke.

  • Diggety247:

    BrokenHanded, Try using a DL manager.

  • BrokenHanded: clicknupload does not seem to work for past few days. keep getting an error saying the site is sendi...
  • Bud: Helps if you actually add these to the "Late Night with Seth Meyers" page too...
  • rambaldi70:

    Hy! Right now, my download speed : 1 Mb/s
    this is ok?
    Tx answer

  • Cinque_Persson: At 183 MB this had to be something completely different. In fact it's just the main actors commentin...

Archives