Sign Up   |   Sign In  
The Fall GuyBoy Kills WorldThe VeilYoung SheldonSeize Them!All AmericanClub ZeroStress PositionsBelow DeckWWE RawBetter Call SaulShadow MagicThe EqualizerThe Name of the RoseWhen Calls the HeartThe SimpsonsDevil in the FleshTMZ Presents: The Downfall of DiddyTrackerS.W.A.T.The SympathizerGolden KamuyTales of Ordinary MadnessArthur the KingBeacon 23

Announcements

04/20

2024

1

Comments

S W A T 2017 S07E09 Honeytrap 720p AMZN WEB-DL DDP5 1 H 264-NTb
[RR/NF/CU]
Size: 1.2GB mkv H264 (HIGH) / EAC3  HD  1280x720

S.W.A.T.
File Information
[img]http://lookpic.com/cdn/i2/t/0420202408151534-1.jpg[/img]
[img]http://lookpic.com/cdn/i2/t/0420202408151534-2.jpg[/img]
[img]http://lookpic.com/cdn/i2/t/0420202408151534-3.jpg[/img]

General
Unique ID                                : 213057399129926164206513274770665811226 (0xA0495CCBDDDF3AE666772BE390ACAD1A)
Complete name                            : S W A T 2017 S07E09 Honeytrap 720p AMZN WEB-DL DDP5 1 H 264-NTb.mkv
Format                                   : Matroska
Format version                           : Version 4
File size                                : 1.24 GiB
Duration                                 : 42 min 40 s
Overall bit rate                         : 4 158 kb/s
Frame rate                               : 23.976 FPS
Writing application                      : mkvmerge v81.0 ('Milliontown') 64-bit
Writing library                          : libebml v1.4.4 + libmatroska v1.7.1

Video
ID                                       : 1
Format                                   : AVC
Format/Info                              : Advanced Video Codec
Format profile                           : High@L3.1
Format settings                          : CABAC / 4 Ref Frames
Format settings, CABAC                   : Yes
Format settings, Reference frames        : 4 frames
Codec ID                                 : V_MPEG4/ISO/AVC
Duration                                 : 42 min 40 s
Bit rate mode                            : Constant
Bit rate                                 : 3 516 kb/s
Nominal bit rate                         : 4 000 kb/s
Width                                    : 1 280 pixels
Height                                   : 720 pixels
Display aspect ratio                     : 16:9
Frame rate mode                          : Constant
Frame rate                               : 23.976 (24000/1001) FPS
Color space                              : YUV
Chroma subsampling                       : 4:2:0
Bit depth                                : 8 bits
Scan type                                : Progressive
Bits/(Pixel*Frame)                       : 0.159
Stream size                              : 1.05 GiB (85%)
Default                                  : Yes
Forced                                   : No
Color range                              : Limited
Color primaries                          : BT.709
Transfer characteristics                 : BT.709
Matrix coefficients                      : BT.709

Audio
ID                                       : 2
Format                                   : E-AC-3
Format/Info                              : Enhanced AC-3
Commercial name                          : Dolby Digital Plus
Codec ID                                 : A_EAC3
Duration                                 : 42 min 40 s
Bit rate mode                            : Constant
Bit rate                                 : 640 kb/s
Channel(s)                               : 6 channels
Channel layout                           : L R C LFE Ls Rs
Sampling rate                            : 48.0 kHz
Frame rate                               : 31.250 FPS (1536 SPF)
Compression mode                         : Lossy
Stream size                              : 195 MiB (15%)
Language                                 : English (US)
Service kind                             : Complete Main
Default                                  : Yes
Forced                                   : No

Text #1
ID                                       : 3
Format                                   : UTF-8
Codec ID                                 : S_TEXT/UTF8
Codec ID/Info                            : UTF-8 Plain Text
Duration                                 : 42 min 31 s
Bit rate                                 : 104 b/s
Frame rate                               : 0.380 FPS
Count of elements                        : 970
Stream size                              : 32.5 KiB (0%)
Language                                 : English (US)
Default                                  : No
Forced                                   : No

Text #2
ID                                       : 4
Format                                   : UTF-8
Codec ID                                 : S_TEXT/UTF8
Codec ID/Info                            : UTF-8 Plain Text
Duration                                 : 42 min 31 s
Bit rate                                 : 108 b/s
Frame rate                               : 0.403 FPS
Count of elements                        : 1027
Stream size                              : 33.7 KiB (0%)
Title                                    : SDH
Language                                 : English (US)
Default                                  : No
Forced                                   : No



Download
File Container: MKV
Video/Audio Codec: H264 (HIGH) EAC3
Video Resolution: 1280x720

1 Response to "[RR/NF/CU] S W A T 2017 S07E09 Honeytrap 720p AMZN WEB-DL DDP5 1 H 264-NTb (1.2GB)"
04/20/24
13:15:27
ReadyPlayerOne

Thank You

Please Login to post a comment.
If you don't have any account, please Register.
  • Subscribe my Feeds
  • Facebook
Encoding Queue:  x264  x265

Latest Episodes

Popular Movies and TV Shows

  • The Fall Guy
  • Boy Kills World
  • The Veil
  • Young Sheldon
  • Seize Them!
  • All American
  • Club Zero
  • Stress Positions
  • Below Deck
  • WWE Raw
  • Better Call Saul
  • Shadow Magic
  • The Equalizer
  • The Name of the Rose
  • When Calls the Heart
  • The Simpsons
  • Devil in the Flesh
  • TMZ Presents: The Downfall of Diddy
  • Tracker
  • S.W.A.T.
  • The Sympathizer
  • Golden Kamuy
  • Tales of Ordinary Madness
  • Arthur the King
  • Beacon 23

Recent Comments

  • PROFessorMorrynarty: Would it be possible to upload 'Lego masters Australia' Series 6 Episode 6 Please? It's the only one...
  • mentalityx:

    Thx mate.

  • Bud: Is the search engine down for everyone, or just me? It just says 'You're forbidden!' whenever I lo...
  • 23d1:

    not episode 4 it is episode 3

  • 23d1:

    not episode 4 it is episode 3

  • 23d1:

    not episode 4 it is episode 3

  • 23d1:

    not episode 4 it is episode 3

  • aaroz88:

    Trimas!!

  • mptoo: I don't often ask this, infact this would be the first time, but I don't suppose there is any chance...
  • Cinque_Persson:

    btw:
    quote /quote
    is broken

  • gabrielsyme:

    Sorry but where is the clicknupload link?

  • mike1204:

    Is this episode doomed??? The RMX avi version is only 12 minutes long!!!

Archives