Sign Up   |   Sign In  
House of the DragonPlatonicCaracasCry-BabyEnter Three DragonsThe Einstein ChallengeNCISRiddickReturn to Never LandTwo Way StretchManhuntPhysicalMayor of KingstownWalkerHotel CocaineCats in the MuseumJack Whitehall: Settle DownCalamity JaneInterview with the VampireThe Loud HouseMy Adventures with SupermanOctopussyDaaaaaali!Kung Fu HustleThe Daily Show

Announcements

05/17

2024

1

Comments

So Help Me Todd S02E10 The Tooth Is Out There 1080p AMZN WEB-DL DDP5 1 H 264-NTb
[RR/NF]
Size: 2.6GB mkv H264 (HIGH) / EAC3  HD  1920x1080

So Help Me Todd
File Information
[img]http://lookpic.com/cdn/i2/t/0517202408334149-1.jpg[/img]
[img]http://lookpic.com/cdn/i2/t/0517202408334149-2.jpg[/img]
[img]http://lookpic.com/cdn/i2/t/0517202408334149-3.jpg[/img]

General
Unique ID                                : 179373226236493570944311903322397824187 (0x86F206D9F0FB9126184D7FC9ADC954BB)
Complete name                            : So Help Me Todd S02E10 The Tooth Is Out There 1080p AMZN WEB-DL DDP5 1 H 264-NTb.mkv
Format                                   : Matroska
Format version                           : Version 4
File size                                : 2.59 GiB
Duration                                 : 43 min 16 s
Overall bit rate                         : 8 563 kb/s
Frame rate                               : 23.976 FPS
Writing application                      : mkvmerge v84.0 ('Sleeper') 64-bit
Writing library                          : libebml v1.4.5 + libmatroska v1.7.1

Video
ID                                       : 1
Format                                   : AVC
Format/Info                              : Advanced Video Codec
Format profile                           : High@L4
Format settings                          : CABAC / 4 Ref Frames
Format settings, CABAC                   : Yes
Format settings, Reference frames        : 4 frames
Codec ID                                 : V_MPEG4/ISO/AVC
Duration                                 : 43 min 16 s
Bit rate mode                            : Constant
Bit rate                                 : 7 920 kb/s
Nominal bit rate                         : 10 000 kb/s
Width                                    : 1 920 pixels
Height                                   : 1 080 pixels
Display aspect ratio                     : 16:9
Frame rate mode                          : Constant
Frame rate                               : 23.976 (24000/1001) FPS
Color space                              : YUV
Chroma subsampling                       : 4:2:0
Bit depth                                : 8 bits
Scan type                                : Progressive
Bits/(Pixel*Frame)                       : 0.159
Stream size                              : 2.39 GiB (92%)
Default                                  : Yes
Forced                                   : No
Color range                              : Limited
Color primaries                          : BT.709
Transfer characteristics                 : BT.709
Matrix coefficients                      : BT.709

Audio
ID                                       : 2
Format                                   : E-AC-3
Format/Info                              : Enhanced AC-3
Commercial name                          : Dolby Digital Plus
Codec ID                                 : A_EAC3
Duration                                 : 43 min 16 s
Bit rate mode                            : Constant
Bit rate                                 : 640 kb/s
Channel(s)                               : 6 channels
Channel layout                           : L R C LFE Ls Rs
Sampling rate                            : 48.0 kHz
Frame rate                               : 31.250 FPS (1536 SPF)
Compression mode                         : Lossy
Stream size                              : 198 MiB (7%)
Language                                 : English (US)
Service kind                             : Complete Main
Default                                  : Yes
Forced                                   : No

Text #1
ID                                       : 3
Format                                   : UTF-8
Codec ID                                 : S_TEXT/UTF8
Codec ID/Info                            : UTF-8 Plain Text
Duration                                 : 42 min 43 s
Bit rate                                 : 108 b/s
Frame rate                               : 0.434 FPS
Count of elements                        : 1113
Stream size                              : 34.0 KiB (0%)
Language                                 : English (US)
Default                                  : No
Forced                                   : No

Text #2
ID                                       : 4
Format                                   : UTF-8
Codec ID                                 : S_TEXT/UTF8
Codec ID/Info                            : UTF-8 Plain Text
Duration                                 : 42 min 43 s
Bit rate                                 : 113 b/s
Frame rate                               : 0.449 FPS
Count of elements                        : 1152
Stream size                              : 35.4 KiB (0%)
Title                                    : SDH
Language                                 : English (US)
Default                                  : No
Forced                                   : No



Download
File Container: MKV
Video/Audio Codec: H264 (HIGH) EAC3
Video Resolution: 1920x1080

1 Response to "[RR/NF] So Help Me Todd S02E10 The Tooth Is Out There 1080p AMZN WEB-DL DDP5 1 H 264-NTb (2.6GB)"
05/17/24
09:46:51
ReadyPlayerOne

Thank You

Please Login to post a comment.
If you don't have any account, please Register.
  • Subscribe my Feeds
  • Facebook
Encoding Queue:  x264  x265

Latest Episodes

Popular Movies and TV Shows

  • House of the Dragon
  • Platonic
  • Caracas
  • Cry-Baby
  • Enter Three Dragons
  • The Einstein Challenge
  • NCIS
  • Riddick
  • Return to Never Land
  • Two Way Stretch
  • Manhunt
  • Physical
  • Mayor of Kingstown
  • Walker
  • Hotel Cocaine
  • Cats in the Museum
  • Jack Whitehall: Settle Down
  • Calamity Jane
  • Interview with the Vampire
  • The Loud House
  • My Adventures with Superman
  • Octopussy
  • Daaaaaali!
  • Kung Fu Hustle
  • The Daily Show

Recent Comments

Archives