Sign Up   |   Sign In  
House of the DragonCaracasWhen Calls the HeartThe Einstein ChallengeCry-BabyRiddickNCISPlatonicEnter Three DragonsManhuntReturn to Never LandDaaaaaali!Mayor of KingstownWalkerHotel CocaineTwo Way StretchCats in the MuseumJack Whitehall: Settle DownThe Loud HouseInterview with the VampireMy Adventures with SupermanOctopussyCalamity JaneKung Fu HustleThe Daily Show

Announcements

05/17

2024

2

Comments

So Help Me Todd S02E10 The Tooth Is Out There 720p AMZN WEB-DL DDP5 1 H 264-NTb
[RR/NF]
Size: 1.1GB mkv H264 (HIGH) / EAC3  HD  1280x720

So Help Me Todd
File Information
[img]http://lookpic.com/cdn/i2/t/0517202408162122-1.jpg[/img]
[img]http://lookpic.com/cdn/i2/t/0517202408162122-2.jpg[/img]
[img]http://lookpic.com/cdn/i2/t/0517202408162122-3.jpg[/img]

General
Unique ID                                : 100062159129411014719134519965086817664 (0x4B474556DDFCBBCAA5181FF37FCE9D80)
Complete name                            : So.Help.Me.Todd.S02E10.The.Tooth.Is.Out.There.720p.AMZN.WEB-DL.DDP5.1.H.264-NTb.mkv
Format                                   : Matroska
Format version                           : Version 4
File size                                : 1.08 GiB
Duration                                 : 43 min 16 s
Overall bit rate                         : 3 589 kb/s
Frame rate                               : 23.976 FPS
Writing application                      : mkvmerge v84.0 ('Sleeper') 64-bit
Writing library                          : libebml v1.4.5 + libmatroska v1.7.1

Video
ID                                       : 1
Format                                   : AVC
Format/Info                              : Advanced Video Codec
Format profile                           : High@L3.1
Format settings                          : CABAC / 4 Ref Frames
Format settings, CABAC                   : Yes
Format settings, Reference frames        : 4 frames
Codec ID                                 : V_MPEG4/ISO/AVC
Duration                                 : 43 min 16 s
Bit rate mode                            : Constant
Bit rate                                 : 2 947 kb/s
Nominal bit rate                         : 4 000 kb/s
Width                                    : 1 280 pixels
Height                                   : 720 pixels
Display aspect ratio                     : 16:9
Frame rate mode                          : Constant
Frame rate                               : 23.976 (24000/1001) FPS
Color space                              : YUV
Chroma subsampling                       : 4:2:0
Bit depth                                : 8 bits
Scan type                                : Progressive
Bits/(Pixel*Frame)                       : 0.133
Stream size                              : 912 MiB (82%)
Default                                  : Yes
Forced                                   : No
Color range                              : Limited
Color primaries                          : BT.709
Transfer characteristics                 : BT.709
Matrix coefficients                      : BT.709

Audio
ID                                       : 2
Format                                   : E-AC-3
Format/Info                              : Enhanced AC-3
Commercial name                          : Dolby Digital Plus
Codec ID                                 : A_EAC3
Duration                                 : 43 min 16 s
Bit rate mode                            : Constant
Bit rate                                 : 640 kb/s
Channel(s)                               : 6 channels
Channel layout                           : L R C LFE Ls Rs
Sampling rate                            : 48.0 kHz
Frame rate                               : 31.250 FPS (1536 SPF)
Compression mode                         : Lossy
Stream size                              : 198 MiB (18%)
Language                                 : English (US)
Service kind                             : Complete Main
Default                                  : Yes
Forced                                   : No

Text #1
ID                                       : 3
Format                                   : UTF-8
Codec ID                                 : S_TEXT/UTF8
Codec ID/Info                            : UTF-8 Plain Text
Duration                                 : 42 min 43 s
Bit rate                                 : 108 b/s
Frame rate                               : 0.434 FPS
Count of elements                        : 1113
Stream size                              : 34.0 KiB (0%)
Language                                 : English (US)
Default                                  : No
Forced                                   : No

Text #2
ID                                       : 4
Format                                   : UTF-8
Codec ID                                 : S_TEXT/UTF8
Codec ID/Info                            : UTF-8 Plain Text
Duration                                 : 42 min 43 s
Bit rate                                 : 113 b/s
Frame rate                               : 0.449 FPS
Count of elements                        : 1152
Stream size                              : 35.4 KiB (0%)
Title                                    : SDH
Language                                 : English (US)
Default                                  : No
Forced                                   : No



Download
File Container: MKV
Video/Audio Codec: H264 (HIGH) EAC3
Video Resolution: 1280x720

2 Responses to "[RR/NF] So Help Me Todd S02E10 The Tooth Is Out There 720p AMZN WEB-DL DDP5 1 H 264-NTb (1.1GB)"
05/17/24
09:13:26
ReadyPlayerOne

Thank You

05/17/24
11:31:11
roott7

Hi

Kindly upload So Help Me Todd S02E10 The Tooth Is Out There 720p AMZN WEB-DL DDP5 1 H 264-NTb to clickupload.space

Thank you

Please Login to post a comment.
If you don't have any account, please Register.
  • Subscribe my Feeds
  • Facebook
Encoding Queue:  x264  x265

Latest Episodes

Popular Movies and TV Shows

  • House of the Dragon
  • Caracas
  • When Calls the Heart
  • The Einstein Challenge
  • Cry-Baby
  • Riddick
  • NCIS
  • Platonic
  • Enter Three Dragons
  • Manhunt
  • Return to Never Land
  • Daaaaaali!
  • Mayor of Kingstown
  • Walker
  • Hotel Cocaine
  • Two Way Stretch
  • Cats in the Museum
  • Jack Whitehall: Settle Down
  • The Loud House
  • Interview with the Vampire
  • My Adventures with Superman
  • Octopussy
  • Calamity Jane
  • Kung Fu Hustle
  • The Daily Show

Recent Comments

Archives