Sign Up   |   Sign In  
Mayor of KingstownHotel CocaineMy Adventures with SupermanDaaaaaali!Look to the LightFramed by My HusbandInterview with the VampirePrincess PowerBilly the KidOctopussyYou Can Live ForeverA Ring of Endless LightLadies in BlackThe Bold and the BeautifulReal Time with Bill MaherKung Fu HustleLicence to KillThere's Something About MaryWWE NXTThe Loud HouseWalkerVice News Presents: Mass Shooting AmericaInside Out 2My Sexual Abuse: The SitcomThe Daily Show

Announcements

05/24

2024

No

Comments

South Park S00E49 South Park The End of Obesity 1080p AMZN WEB-DL DDP5 1 H 264-NTb
[RR/NF/CU]
Size: 1.5GB mkv H264 (HIGH) / EAC3  HD  1920x1080

South Park
File Information
[img]http://lookpic.com/cdn/i2/t/0524202419305480-1.jpg[/img]
[img]http://lookpic.com/cdn/i2/t/0524202419305480-2.jpg[/img]
[img]http://lookpic.com/cdn/i2/t/0524202419305480-3.jpg[/img]

General
Unique ID                                : 199886016809515645476400254029182792863 (0x9660A58294FFF02B87B8A1B46F6BF49F)
Complete name                            : South Park S00E49 South Park The End of Obesity 1080p AMZN WEB-DL DDP5 1 H 264-NTb.mkv
Format                                   : Matroska
Format version                           : Version 4
File size                                : 1.50 GiB
Duration                                 : 50 min 28 s
Overall bit rate                         : 4 244 kb/s
Frame rate                               : 23.976 FPS
Writing application                      : mkvmerge v80.0 ('Roundabout') 64-bit
Writing library                          : libebml v1.4.4 + libmatroska v1.7.1

Video
ID                                       : 1
Format                                   : AVC
Format/Info                              : Advanced Video Codec
Format profile                           : High@L4
Format settings                          : CABAC / 4 Ref Frames
Format settings, CABAC                   : Yes
Format settings, Reference frames        : 4 frames
Codec ID                                 : V_MPEG4/ISO/AVC
Duration                                 : 50 min 28 s
Bit rate mode                            : Constant
Bit rate                                 : 3 602 kb/s
Nominal bit rate                         : 10 000 kb/s
Width                                    : 1 920 pixels
Height                                   : 1 080 pixels
Display aspect ratio                     : 16:9
Frame rate mode                          : Constant
Frame rate                               : 23.976 (24000/1001) FPS
Color space                              : YUV
Chroma subsampling                       : 4:2:0
Bit depth                                : 8 bits
Scan type                                : Progressive
Bits/(Pixel*Frame)                       : 0.072
Stream size                              : 1.27 GiB (85%)
Default                                  : Yes
Forced                                   : No
Color range                              : Limited
Color primaries                          : BT.709
Transfer characteristics                 : BT.709
Matrix coefficients                      : BT.709

Audio
ID                                       : 2
Format                                   : E-AC-3
Format/Info                              : Enhanced AC-3
Commercial name                          : Dolby Digital Plus
Codec ID                                 : A_EAC3
Duration                                 : 50 min 28 s
Bit rate mode                            : Constant
Bit rate                                 : 640 kb/s
Channel(s)                               : 6 channels
Channel layout                           : L R C LFE Ls Rs
Sampling rate                            : 48.0 kHz
Frame rate                               : 31.250 FPS (1536 SPF)
Compression mode                         : Lossy
Stream size                              : 231 MiB (15%)
Language                                 : English (US)
Service kind                             : Complete Main
Default                                  : Yes
Forced                                   : No

Text #1
ID                                       : 3
Format                                   : UTF-8
Codec ID                                 : S_TEXT/UTF8
Codec ID/Info                            : UTF-8 Plain Text
Duration                                 : 49 min 59 s
Bit rate                                 : 96 b/s
Frame rate                               : 0.352 FPS
Count of elements                        : 1057
Stream size                              : 35.3 KiB (0%)
Language                                 : English (US)
Default                                  : No
Forced                                   : No

Text #2
ID                                       : 4
Format                                   : UTF-8
Codec ID                                 : S_TEXT/UTF8
Codec ID/Info                            : UTF-8 Plain Text
Duration                                 : 50 min 23 s
Bit rate                                 : 99 b/s
Frame rate                               : 0.373 FPS
Count of elements                        : 1129
Stream size                              : 36.9 KiB (0%)
Title                                    : SDH
Language                                 : English (US)
Default                                  : No
Forced                                   : No



Download
File Container: MKV
Video/Audio Codec: H264 (HIGH) EAC3
Video Resolution: 1920x1080
Please Login to post a comment.
If you don't have any account, please Register.
  • Subscribe my Feeds
  • Facebook
Encoding Queue:  x264  x265

Latest Episodes

Popular Movies and TV Shows

  • Mayor of Kingstown
  • Hotel Cocaine
  • My Adventures with Superman
  • Daaaaaali!
  • Look to the Light
  • Framed by My Husband
  • Interview with the Vampire
  • Princess Power
  • Billy the Kid
  • Octopussy
  • You Can Live Forever
  • A Ring of Endless Light
  • Ladies in Black
  • The Bold and the Beautiful
  • Real Time with Bill Maher
  • Kung Fu Hustle
  • Licence to Kill
  • There's Something About Mary
  • WWE NXT
  • The Loud House
  • Walker
  • Vice News Presents: Mass Shooting America
  • Inside Out 2
  • My Sexual Abuse: The Sitcom
  • The Daily Show

Recent Comments

Archives