Sign Up   |   Sign In  
Daaaaaali!Break PointReady, Set, LoveMy Adventures with SupermanYou Can Live ForeverSatan's ChildrenMayor of KingstownInterview with the VampireHotel CocaineOctopussyLook to the LightFramed by My HusbandBilly the KidLadies in BlackThe Loud HouseKung Fu HustleLicence to KillThere's Something About MaryWWE NXTWalkerThe Bold and the BeautifulVice News Presents: Mass Shooting AmericaMy Sexual Abuse: The SitcomInside Out 2The Daily Show

Announcements

05/24

2024

No

Comments

South Park S00E49 South Park The End of Obesity 720p AMZN WEB-DL DDP5 1 H 264-NTb
[RR/NF/CU]
Size: 903MB mkv H264 (HIGH) / EAC3  HD  1280x720

South Park
File Information
[img]http://lookpic.com/cdn/i2/t/0524202419305930-1.jpg[/img]
[img]http://lookpic.com/cdn/i2/t/0524202419305930-2.jpg[/img]
[img]http://lookpic.com/cdn/i2/t/0524202419305930-3.jpg[/img]

General
Unique ID                                : 165191785285807002305027916709016180825 (0x7C46C7D469020F5C7D44F7A88E991859)
Complete name                            : South Park S00E49 South Park The End of Obesity 720p AMZN WEB-DL DDP5 1 H 264-NTb.mkv
Format                                   : Matroska
Format version                           : Version 4
File size                                : 904 MiB
Duration                                 : 50 min 28 s
Overall bit rate                         : 2 503 kb/s
Frame rate                               : 23.976 FPS
Writing application                      : mkvmerge v80.0 ('Roundabout') 64-bit
Writing library                          : libebml v1.4.4 + libmatroska v1.7.1

Video
ID                                       : 1
Format                                   : AVC
Format/Info                              : Advanced Video Codec
Format profile                           : High@L3.1
Format settings                          : CABAC / 4 Ref Frames
Format settings, CABAC                   : Yes
Format settings, Reference frames        : 4 frames
Codec ID                                 : V_MPEG4/ISO/AVC
Duration                                 : 50 min 28 s
Bit rate mode                            : Constant
Bit rate                                 : 1 861 kb/s
Nominal bit rate                         : 6 000 kb/s
Width                                    : 1 280 pixels
Height                                   : 720 pixels
Display aspect ratio                     : 16:9
Frame rate mode                          : Constant
Frame rate                               : 23.976 (24000/1001) FPS
Color space                              : YUV
Chroma subsampling                       : 4:2:0
Bit depth                                : 8 bits
Scan type                                : Progressive
Bits/(Pixel*Frame)                       : 0.084
Stream size                              : 672 MiB (74%)
Default                                  : Yes
Forced                                   : No
Color range                              : Limited
Color primaries                          : BT.709
Transfer characteristics                 : BT.709
Matrix coefficients                      : BT.709

Audio
ID                                       : 2
Format                                   : E-AC-3
Format/Info                              : Enhanced AC-3
Commercial name                          : Dolby Digital Plus
Codec ID                                 : A_EAC3
Duration                                 : 50 min 28 s
Bit rate mode                            : Constant
Bit rate                                 : 640 kb/s
Channel(s)                               : 6 channels
Channel layout                           : L R C LFE Ls Rs
Sampling rate                            : 48.0 kHz
Frame rate                               : 31.250 FPS (1536 SPF)
Compression mode                         : Lossy
Stream size                              : 231 MiB (26%)
Language                                 : English (US)
Service kind                             : Complete Main
Default                                  : Yes
Forced                                   : No

Text #1
ID                                       : 3
Format                                   : UTF-8
Codec ID                                 : S_TEXT/UTF8
Codec ID/Info                            : UTF-8 Plain Text
Duration                                 : 49 min 59 s
Bit rate                                 : 96 b/s
Frame rate                               : 0.352 FPS
Count of elements                        : 1057
Stream size                              : 35.3 KiB (0%)
Language                                 : English (US)
Default                                  : No
Forced                                   : No

Text #2
ID                                       : 4
Format                                   : UTF-8
Codec ID                                 : S_TEXT/UTF8
Codec ID/Info                            : UTF-8 Plain Text
Duration                                 : 50 min 23 s
Bit rate                                 : 99 b/s
Frame rate                               : 0.373 FPS
Count of elements                        : 1129
Stream size                              : 36.9 KiB (0%)
Title                                    : SDH
Language                                 : English (US)
Default                                  : No
Forced                                   : No



Download
File Container: MKV
Video/Audio Codec: H264 (HIGH) EAC3
Video Resolution: 1280x720
Please Login to post a comment.
If you don't have any account, please Register.
  • Subscribe my Feeds
  • Facebook
Encoding Queue:  x264  x265

Latest Episodes

Popular Movies and TV Shows

  • Daaaaaali!
  • Break Point
  • Ready, Set, Love
  • My Adventures with Superman
  • You Can Live Forever
  • Satan's Children
  • Mayor of Kingstown
  • Interview with the Vampire
  • Hotel Cocaine
  • Octopussy
  • Look to the Light
  • Framed by My Husband
  • Billy the Kid
  • Ladies in Black
  • The Loud House
  • Kung Fu Hustle
  • Licence to Kill
  • There's Something About Mary
  • WWE NXT
  • Walker
  • The Bold and the Beautiful
  • Vice News Presents: Mass Shooting America
  • My Sexual Abuse: The Sitcom
  • Inside Out 2
  • The Daily Show

Recent Comments

Archives