Sign Up   |   Sign In  
Furiosa: A Mad Max SagaAutoeroticThe Feeling That the Time for Doing Something Has PassedUnder the BridgeHold the Front PageWWE NXTDark MatterMasterChef AustraliaFire CountryMay DecemberShe Came to MeOur LoversWWE RawThe Big Door PrizeLootMahal ko ang mahal moYour Mother's SonSerbidorasThe Bold and the BeautifulThe SimpsonsWWE Smackdown!TarotThe First OmenCivil WarThe Daily Show

Announcements

04/18

2024

1

Comments

Star Trek Discovery S05E04 Face the Strange 1080p AMZN WEB-DL DDP5 1 H 264-NTb
[RR/NF]
Size: 2.5GB mkv H264 (HIGH) / EAC3  HD  1920x800

Star Trek: Discovery
File Information
[img]http://lookpic.com/cdn/i2/t/0418202409403734-1.jpg[/img]
[img]http://lookpic.com/cdn/i2/t/0418202409403734-2.jpg[/img]
[img]http://lookpic.com/cdn/i2/t/0418202409403734-3.jpg[/img]

General
Unique ID                                : 56211349158411682911233498238040557550 (0x2A49E97C7E2717B10633FC0CBC3247EE)
Complete name                            : Star Trek Discovery S05E04 Face the Strange 1080p AMZN WEB-DL DDP5 1 H 264-NTb.mkv
Format                                   : Matroska
Format version                           : Version 4
File size                                : 2.48 GiB
Duration                                 : 51 min 3 s
Overall bit rate                         : 6 962 kb/s
Frame rate                               : 23.976 FPS
Writing application                      : mkvmerge v81.0 ('Milliontown') 64-bit
Writing library                          : libebml v1.4.4 + libmatroska v1.7.1

Video
ID                                       : 1
Format                                   : AVC
Format/Info                              : Advanced Video Codec
Format profile                           : High@L4
Format settings                          : CABAC / 4 Ref Frames
Format settings, CABAC                   : Yes
Format settings, Reference frames        : 4 frames
Codec ID                                 : V_MPEG4/ISO/AVC
Duration                                 : 51 min 3 s
Bit rate mode                            : Constant
Bit rate                                 : 6 320 kb/s
Nominal bit rate                         : 10 000 kb/s
Width                                    : 1 920 pixels
Height                                   : 800 pixels
Display aspect ratio                     : 2.40:1
Frame rate mode                          : Constant
Frame rate                               : 23.976 (24000/1001) FPS
Color space                              : YUV
Chroma subsampling                       : 4:2:0
Bit depth                                : 8 bits
Scan type                                : Progressive
Bits/(Pixel*Frame)                       : 0.172
Stream size                              : 2.25 GiB (91%)
Default                                  : Yes
Forced                                   : No
Color range                              : Limited
Color primaries                          : BT.709
Transfer characteristics                 : BT.709
Matrix coefficients                      : BT.709

Audio
ID                                       : 2
Format                                   : E-AC-3
Format/Info                              : Enhanced AC-3
Commercial name                          : Dolby Digital Plus
Codec ID                                 : A_EAC3
Duration                                 : 51 min 3 s
Bit rate mode                            : Constant
Bit rate                                 : 640 kb/s
Channel(s)                               : 6 channels
Channel layout                           : L R C LFE Ls Rs
Sampling rate                            : 48.0 kHz
Frame rate                               : 31.250 FPS (1536 SPF)
Compression mode                         : Lossy
Stream size                              : 234 MiB (9%)
Language                                 : English (US)
Service kind                             : Complete Main
Default                                  : Yes
Forced                                   : No

Text #1
ID                                       : 3
Format                                   : UTF-8
Codec ID                                 : S_TEXT/UTF8
Codec ID/Info                            : UTF-8 Plain Text
Duration                                 : 49 min 34 s
Bit rate                                 : 81 b/s
Frame rate                               : 0.315 FPS
Count of elements                        : 936
Stream size                              : 29.4 KiB (0%)
Language                                 : English (US)
Default                                  : No
Forced                                   : No

Text #2
ID                                       : 4
Format                                   : UTF-8
Codec ID                                 : S_TEXT/UTF8
Codec ID/Info                            : UTF-8 Plain Text
Duration                                 : 50 min 4 s
Bit rate                                 : 83 b/s
Frame rate                               : 0.324 FPS
Count of elements                        : 974
Stream size                              : 30.6 KiB (0%)
Title                                    : SDH
Language                                 : English (US)
Default                                  : No
Forced                                   : No



Download
File Container: MKV
Video/Audio Codec: H264 (HIGH) EAC3
Video Resolution: 1920x800

1 Response to "[RR/NF] Star Trek Discovery S05E04 Face the Strange 1080p AMZN WEB-DL DDP5 1 H 264-NTb (2.5GB)"
04/18/24
13:21:13
ReadyPlayerOne

Thank You

Please Login to post a comment.
If you don't have any account, please Register.
  • Subscribe my Feeds
  • Facebook
Encoding Queue:  x264  x265

Latest Episodes

Popular Movies and TV Shows

  • Furiosa: A Mad Max Saga
  • Autoerotic
  • The Feeling That the Time for Doing Something Has Passed
  • Under the Bridge
  • Hold the Front Page
  • WWE NXT
  • Dark Matter
  • MasterChef Australia
  • Fire Country
  • May December
  • She Came to Me
  • Our Lovers
  • WWE Raw
  • The Big Door Prize
  • Loot
  • Mahal ko ang mahal mo
  • Your Mother's Son
  • Serbidoras
  • The Bold and the Beautiful
  • The Simpsons
  • WWE Smackdown!
  • Tarot
  • The First Omen
  • Civil War
  • The Daily Show

Recent Comments

  • spiderspinner: Bud:The same thing started happening to me last night and I've used four different browsers yet they...
  • timt:

    Junk, CAM

  • upx:

    WARNING:This is NOT a BluRay rip. It's a CAMrip.

  • Bud: Is clicknupload borked for anyone else now, or is it just me? In recent months it's only worked in...
  • mentalityx:

    Rad bloke!

  • waanaabe: I hope someone follows through with the rest! also, did not check every post but hoping future ones ...
  • Demonz:

    Holy popups ClickNupload

  • rambaldi70:

    this release sort cut! 1h33m12 !
    imdb - 1h 54m

  • rambaldi70: This release the first bad source 1h33m12 - stop the play this release sort cut! 1h33m12 ! imdb - 1h...
  • rambaldi70:

    this release sort cut! 1h33m12 !
    imdb - 1h 54m

  • dilliboy: Will we ever see these RMTeam releases ever again? I hope they're not lost to the digital graveyard ...
  • kang:

    NitroFlare's link is missing...

  • kang:

    NitroFlare's link is missing...

  • tchamast:

    @Wrapt

    I've seen that too, don't know why.

  • Rafi85: Hi thx for the 14th season. Is it possible to reupload some episodes plz they were removed. These ar...
  • KubrickFan:

    Any possibility of a fresh link for this?

  • GubeShitemon: This is a different movie to the artwork version. Not the Dylan McDermott film but the Ben Affleck f...
  • drorsabi1:

    @admin
    Please add "My Adventures With Superman Season 2 "

  • Wrapt: Hahahaha yeah right make a liar out of me but I was referring to comments made about a movie or an e...
  • Wrapt: Comments are not always appearing in the Recent Comments list after submitting a comment any reason ...

Archives