Sign Up   |   Sign In  
The Many Lives of Martha StewartInside No. 9RebusHidden CityShe Is ConannNähtamatu võitlusDoctor WhoYatagarasu: The Raven Does Not Choose Its MasterS.W.A.T.One LifeEasy RiderImaginaryYoung SheldonBlue BloodsFire CountryChallengers12.12: The DayAdagioSugarStar Trek: DiscoveryGrey's AnatomyGodzilla x Kong: The New EmpireMothers' InstinctThe DreamersOuter Range

Announcements

04/18

2024

1

Comments

Star Trek Discovery S05E04 Face the Strange 1080p PMTP WEB-DL DDP5 1 DoVi HEVC-NTb
[RR/NF/CU]
Size: 1.9GB mkv HEVC (MAIN 10) / EAC3  HD  1920x1080

Star Trek: Discovery
File Information
[img]http://lookpic.com/cdn/i2/t/0418202409254209-1.jpg[/img]
[img]http://lookpic.com/cdn/i2/t/0418202409254209-2.jpg[/img]
[img]http://lookpic.com/cdn/i2/t/0418202409254209-3.jpg[/img]

General
Unique ID                                : 70557120538912660453592649571277623390 (0x3514CE9FA65B95A8B9E8792B6CBE505E)
Complete name                            : Star Trek Discovery S05E04 Face the Strange 1080p PMTP WEB-DL DDP5 1 DoVi HEVC-NTb.mkv
Format                                   : Matroska
Format version                           : Version 4
File size                                : 1.90 GiB
Duration                                 : 51 min 3 s
Overall bit rate                         : 5 338 kb/s
Frame rate                               : 23.976 FPS
Writing application                      : mkvmerge v81.0 ('Milliontown') 64-bit
Writing library                          : libebml v1.4.4 + libmatroska v1.7.1

Video
ID                                       : 1
Format                                   : HEVC
Format/Info                              : High Efficiency Video Coding
Format profile                           : Main 10@L4@Main
HDR format                               : Dolby Vision, Version 1.0, dvhe.05.03, BL+RPU
Codec ID                                 : V_MPEGH/ISO/HEVC
Duration                                 : 51 min 3 s
Bit rate                                 : 4 696 kb/s
Width                                    : 1 920 pixels
Height                                   : 1 080 pixels
Display aspect ratio                     : 16:9
Frame rate mode                          : Constant
Frame rate                               : 23.976 (24000/1001) FPS
Color space                              : YUV
Chroma subsampling                       : 4:2:0 (Type 0)
Bit depth                                : 10 bits
Bits/(Pixel*Frame)                       : 0.094
Stream size                              : 1.67 GiB (88%)
Default                                  : Yes
Forced                                   : No
Color range                              : Full
Color primaries                          : BT.2020
Transfer characteristics                 : PQ
Matrix coefficients                      : BT.2020 non-constant

Audio
ID                                       : 2
Format                                   : E-AC-3
Format/Info                              : Enhanced AC-3
Commercial name                          : Dolby Digital Plus
Codec ID                                 : A_EAC3
Duration                                 : 51 min 3 s
Bit rate mode                            : Constant
Bit rate                                 : 640 kb/s
Channel(s)                               : 6 channels
Channel layout                           : L R C LFE Ls Rs
Sampling rate                            : 48.0 kHz
Frame rate                               : 31.250 FPS (1536 SPF)
Compression mode                         : Lossy
Stream size                              : 234 MiB (12%)
Language                                 : English
Service kind                             : Complete Main
Default                                  : Yes
Forced                                   : No

Text #1
ID                                       : 3
Format                                   : UTF-8
Codec ID                                 : S_TEXT/UTF8
Codec ID/Info                            : UTF-8 Plain Text
Duration                                 : 49 min 34 s
Bit rate                                 : 80 b/s
Frame rate                               : 0.315 FPS
Count of elements                        : 936
Stream size                              : 29.4 KiB (0%)
Language                                 : English (US)
Default                                  : No
Forced                                   : No

Text #2
ID                                       : 4
Format                                   : UTF-8
Codec ID                                 : S_TEXT/UTF8
Codec ID/Info                            : UTF-8 Plain Text
Duration                                 : 50 min 4 s
Bit rate                                 : 83 b/s
Frame rate                               : 0.324 FPS
Count of elements                        : 974
Stream size                              : 30.7 KiB (0%)
Title                                    : SDH
Language                                 : English (US)
Default                                  : No
Forced                                   : No

Menu
00:00:00.000                             : Chapter 1
00:00:33.000                             : Recap
00:01:26.000                             : Chapter 2
00:08:51.000                             : Intro
00:20:39.000                             : Chapter 3
00:30:40.000                             : Chapter 4
00:41:48.000                             : Chapter 5
00:49:57.000                             : Credits



Download
File Container: MKV
Video/Audio Codec: HEVC (MAIN 10) EAC3
Video Resolution: 1920x1080

1 Response to "[RR/NF/CU] Star Trek Discovery S05E04 Face the Strange 1080p PMTP WEB-DL DDP5 1 DoVi HEVC-NTb (1.9GB)"
04/18/24
13:21:34
ReadyPlayerOne

Thank You

Please Login to post a comment.
If you don't have any account, please Register.
  • Subscribe my Feeds
  • Facebook
Encoding Queue:  x264  x265

Latest Episodes

Popular Movies and TV Shows

  • The Many Lives of Martha Stewart
  • Inside No. 9
  • Rebus
  • Hidden City
  • She Is Conann
  • Nähtamatu võitlus
  • Doctor Who
  • Yatagarasu: The Raven Does Not Choose Its Master
  • S.W.A.T.
  • One Life
  • Easy Rider
  • Imaginary
  • Young Sheldon
  • Blue Bloods
  • Fire Country
  • Challengers
  • 12.12: The Day
  • Adagio
  • Sugar
  • Star Trek: Discovery
  • Grey's Anatomy
  • Godzilla x Kong: The New Empire
  • Mothers' Instinct
  • The Dreamers
  • Outer Range

Recent Comments

  • 23d1:

    not episode 4 it is episode 3

  • 23d1:

    not episode 4 it is episode 3

  • 23d1:

    not episode 4 it is episode 3

  • 23d1:

    not episode 4 it is episode 3

  • aaroz88:

    Trimas!!

  • mptoo: I don't often ask this, infact this would be the first time, but I don't suppose there is any chance...
  • Cinque_Persson:

    btw:
    quote /quote
    is broken

  • gabrielsyme:

    Sorry but where is the clicknupload link?

  • mike1204:

    Is this episode doomed??? The RMX avi version is only 12 minutes long!!!

  • waanaabe:

    Could PUSHING DAISES kindly be upoaded to CU? THANKS!

  • mentalityx:

    Thx bloke.

Archives