Sign Up   |   Sign In  
The EqualizerThe SympathizerTrackerThe Baby DaddyAccidentBob's BurgersThe SimpsonsKrapopolisThe Tunnel to Summer, the Exit of GoodbyesThe Bank ShotDawn of the Planet of the ApesBeacon 23Blue BloodsInterview with the VampireChallengersPhil Tippett: Mad Dreams and MonstersExhumaSaturday Night LiveYoung SheldonStar Trek: DiscoveryGodzilla x Kong: The New EmpireForce of Nature: The Dry 2Another BodyS.W.A.T.Doctor Who

Announcements

04/18

2024

1

Comments

Star Trek Discovery S05E04 Face the Strange 720p AMZN WEB-DL DDP5 1 H 264-NTb
[RR/NF/CU]
Size: 1.1GB mkv H264 (HIGH) / EAC3  HD  1248x520

Star Trek: Discovery
File Information
[img]http://lookpic.com/cdn/i2/t/0418202409265388-1.jpg[/img]
[img]http://lookpic.com/cdn/i2/t/0418202409265388-2.jpg[/img]
[img]http://lookpic.com/cdn/i2/t/0418202409265388-3.jpg[/img]

General
Unique ID                                : 22175680096795327394408612969089954170 (0x10AEE17133672498BACD31CD9281717A)
Complete name                            : Star.Trek.Discovery.S05E04.Face.the.Strange.720p.AMZN.WEB-DL.DDP5.1.H.264-NTb.mkv
Format                                   : Matroska
Format version                           : Version 4
File size                                : 1.14 GiB
Duration                                 : 51 min 3 s
Overall bit rate                         : 3 194 kb/s
Frame rate                               : 23.976 FPS
Writing application                      : mkvmerge v81.0 ('Milliontown') 64-bit
Writing library                          : libebml v1.4.4 + libmatroska v1.7.1

Video
ID                                       : 1
Format                                   : AVC
Format/Info                              : Advanced Video Codec
Format profile                           : High@L3.1
Format settings                          : CABAC / 4 Ref Frames
Format settings, CABAC                   : Yes
Format settings, Reference frames        : 4 frames
Codec ID                                 : V_MPEG4/ISO/AVC
Duration                                 : 51 min 3 s
Bit rate mode                            : Constant
Bit rate                                 : 2 552 kb/s
Nominal bit rate                         : 4 000 kb/s
Width                                    : 1 248 pixels
Height                                   : 520 pixels
Display aspect ratio                     : 2.40:1
Frame rate mode                          : Constant
Frame rate                               : 23.976 (24000/1001) FPS
Color space                              : YUV
Chroma subsampling                       : 4:2:0
Bit depth                                : 8 bits
Scan type                                : Progressive
Bits/(Pixel*Frame)                       : 0.164
Stream size                              : 932 MiB (80%)
Default                                  : Yes
Forced                                   : No
Color range                              : Limited
Color primaries                          : BT.709
Transfer characteristics                 : BT.709
Matrix coefficients                      : BT.709

Audio
ID                                       : 2
Format                                   : E-AC-3
Format/Info                              : Enhanced AC-3
Commercial name                          : Dolby Digital Plus
Codec ID                                 : A_EAC3
Duration                                 : 51 min 3 s
Bit rate mode                            : Constant
Bit rate                                 : 640 kb/s
Channel(s)                               : 6 channels
Channel layout                           : L R C LFE Ls Rs
Sampling rate                            : 48.0 kHz
Frame rate                               : 31.250 FPS (1536 SPF)
Compression mode                         : Lossy
Stream size                              : 234 MiB (20%)
Language                                 : English (US)
Service kind                             : Complete Main
Default                                  : Yes
Forced                                   : No

Text #1
ID                                       : 3
Format                                   : UTF-8
Codec ID                                 : S_TEXT/UTF8
Codec ID/Info                            : UTF-8 Plain Text
Duration                                 : 49 min 34 s
Bit rate                                 : 81 b/s
Frame rate                               : 0.315 FPS
Count of elements                        : 936
Stream size                              : 29.4 KiB (0%)
Language                                 : English (US)
Default                                  : No
Forced                                   : No

Text #2
ID                                       : 4
Format                                   : UTF-8
Codec ID                                 : S_TEXT/UTF8
Codec ID/Info                            : UTF-8 Plain Text
Duration                                 : 50 min 4 s
Bit rate                                 : 83 b/s
Frame rate                               : 0.324 FPS
Count of elements                        : 974
Stream size                              : 30.6 KiB (0%)
Title                                    : SDH
Language                                 : English (US)
Default                                  : No
Forced                                   : No



Download
File Container: MKV
Video/Audio Codec: H264 (HIGH) EAC3
Video Resolution: 1248x520

1 Response to "[RR/NF/CU] Star Trek Discovery S05E04 Face the Strange 720p AMZN WEB-DL DDP5 1 H 264-NTb (1.1GB)"
04/18/24
13:21:45
ReadyPlayerOne

Thank You

Please Login to post a comment.
If you don't have any account, please Register.
  • Subscribe my Feeds
  • Facebook
Encoding Queue:  x264  x265

Latest Episodes

Popular Movies and TV Shows

  • The Equalizer
  • The Sympathizer
  • Tracker
  • The Baby Daddy
  • Accident
  • Bob's Burgers
  • The Simpsons
  • Krapopolis
  • The Tunnel to Summer, the Exit of Goodbyes
  • The Bank Shot
  • Dawn of the Planet of the Apes
  • Beacon 23
  • Blue Bloods
  • Interview with the Vampire
  • Challengers
  • Phil Tippett: Mad Dreams and Monsters
  • Exhuma
  • Saturday Night Live
  • Young Sheldon
  • Star Trek: Discovery
  • Godzilla x Kong: The New Empire
  • Force of Nature: The Dry 2
  • Another Body
  • S.W.A.T.
  • Doctor Who

Recent Comments

  • 23d1:

    not episode 4 it is episode 3

  • 23d1:

    not episode 4 it is episode 3

  • 23d1:

    not episode 4 it is episode 3

  • 23d1:

    not episode 4 it is episode 3

  • aaroz88:

    Trimas!!

  • mptoo: I don't often ask this, infact this would be the first time, but I don't suppose there is any chance...
  • Cinque_Persson:

    btw:
    quote /quote
    is broken

  • gabrielsyme:

    Sorry but where is the clicknupload link?

  • mike1204:

    Is this episode doomed??? The RMX avi version is only 12 minutes long!!!

  • waanaabe:

    Could PUSHING DAISES kindly be upoaded to CU? THANKS!

  • mentalityx:

    Thx bloke.

Archives