Sign Up   |   Sign In  
Dark MatterWreckMysterious DisappearancesLost SoulzEuropa ReportMemories of My ChildhoodThe AcolytePresumed InnocentThe PrimevalsWWE NXTMysteries of the Terracotta WarriorsMe and Earl and the Dying GirlThe Big Door PrizeTryingAcapulcoHow Music Got FreeThe Beast in the JunglePet SemataryWWE Smackdown!The Loud HouseWild Eyed and WickedThe Daily ShowPeggy Sue Got MarriedUnsung HeroSurvivor

Announcements

05/23

2024

1

Comments

Star Trek Discovery S05E09 Lagrange Point 1080p Hybrid PMTP WEB-DL DDP5 1 DoVi HDR HEVC-NTb
[RR/NF]
Size: 3.4GB 2 CDs mkv HEVC (MAIN 10) / EAC3  HD  1920x1080

Star Trek: Discovery
File Information
[img]http://lookpic.com/cdn/i2/t/0523202414554337-1.jpg[/img]
[img]http://lookpic.com/cdn/i2/t/0523202414554337-2.jpg[/img]
[img]http://lookpic.com/cdn/i2/t/0523202414554337-3.jpg[/img]

General
Unique ID                                : 29695959177835843722387430229204432960 (0x16573BD3D09FF511CF7871AC1EE27840)
Complete name                            : b77a6cef36bb42cfba8bdb3ab1725c6b.mkv
Format                                   : Matroska
Format version                           : Version 4
File size                                : 1.68 GiB
Duration                                 : 46 min 56 s
Overall bit rate                         : 5 123 kb/s
Frame rate                               : 23.976 FPS
Writing application                      : mkvmerge v81.0 ('Milliontown') 64-bit
Writing library                          : libebml v1.4.4 + libmatroska v1.7.1

Video
ID                                       : 1
Format                                   : HEVC
Format/Info                              : High Efficiency Video Coding
Format profile                           : Main 10@L4@Main
HDR format                               : Dolby Vision, Version 1.0, dvhe.08.03, BL+RPU, HDR10 compatible / SMPTE ST 2094 App 4, Version 1, HDR10+ Profile B compatible
Codec ID                                 : V_MPEGH/ISO/HEVC
Duration                                 : 46 min 56 s
Bit rate                                 : 4 481 kb/s
Width                                    : 1 920 pixels
Height                                   : 1 080 pixels
Display aspect ratio                     : 16:9
Frame rate mode                          : Constant
Frame rate                               : 23.976 (24000/1001) FPS
Color space                              : YUV
Chroma subsampling                       : 4:2:0 (Type 2)
Bit depth                                : 10 bits
Bits/(Pixel*Frame)                       : 0.090
Stream size                              : 1.47 GiB (87%)
Default                                  : Yes
Forced                                   : No
Color range                              : Limited
Color primaries                          : BT.2020
Transfer characteristics                 : PQ
Matrix coefficients                      : BT.2020 non-constant
Mastering display color primaries        : Display P3
Mastering display luminance              : min: 0.0001 cd/m2, max: 1000 cd/m2
Maximum Content Light Level              : 703 cd/m2
Maximum Frame-Average Light Level        : 131 cd/m2

Audio
ID                                       : 2
Format                                   : E-AC-3
Format/Info                              : Enhanced AC-3
Commercial name                          : Dolby Digital Plus
Codec ID                                 : A_EAC3
Duration                                 : 46 min 56 s
Bit rate mode                            : Constant
Bit rate                                 : 640 kb/s
Channel(s)                               : 6 channels
Channel layout                           : L R C LFE Ls Rs
Sampling rate                            : 48.0 kHz
Frame rate                               : 31.250 FPS (1536 SPF)
Compression mode                         : Lossy
Stream size                              : 215 MiB (12%)
Language                                 : English
Service kind                             : Complete Main
Default                                  : Yes
Forced                                   : No

Text #1
ID                                       : 3
Format                                   : UTF-8
Codec ID                                 : S_TEXT/UTF8
Codec ID/Info                            : UTF-8 Plain Text
Duration                                 : 45 min 31 s
Bit rate                                 : 84 b/s
Frame rate                               : 0.314 FPS
Count of elements                        : 859
Stream size                              : 28.1 KiB (0%)
Language                                 : English (US)
Default                                  : No
Forced                                   : No

Text #2
ID                                       : 4
Format                                   : UTF-8
Codec ID                                 : S_TEXT/UTF8
Codec ID/Info                            : UTF-8 Plain Text
Duration                                 : 45 min 55 s
Bit rate                                 : 90 b/s
Frame rate                               : 0.328 FPS
Count of elements                        : 905
Stream size                              : 30.4 KiB (0%)
Title                                    : SDH
Language                                 : English (US)
Default                                  : No
Forced                                   : No

Menu
00:00:00.000                             : Chapter 1
00:00:27.000                             : Recap
00:02:37.000                             : Chapter 2
00:11:43.000                             : Intro
00:23:14.000                             : Chapter 3
00:33:54.000                             : Chapter 4
00:39:23.000                             : Chapter 5
00:45:50.000                             : Credits



Download
File Container: MKV
Video/Audio Codec: HEVC (MAIN 10) EAC3
Video Resolution: 1920x1080

1 Response to "[RR/NF] Star Trek Discovery S05E09 Lagrange Point 1080p Hybrid PMTP WEB-DL DDP5 1 DoVi HDR HEVC-NTb (3.4GB)"
05/23/24
16:04:07
ReadyPlayerOne

Thank You

Please Login to post a comment.
If you don't have any account, please Register.
  • Subscribe my Feeds
  • Facebook
Encoding Queue:  x264  x265

Latest Episodes

Popular Movies and TV Shows

  • Dark Matter
  • Wreck
  • Mysterious Disappearances
  • Lost Soulz
  • Europa Report
  • Memories of My Childhood
  • The Acolyte
  • Presumed Innocent
  • The Primevals
  • WWE NXT
  • Mysteries of the Terracotta Warriors
  • Me and Earl and the Dying Girl
  • The Big Door Prize
  • Trying
  • Acapulco
  • How Music Got Free
  • The Beast in the Jungle
  • Pet Sematary
  • WWE Smackdown!
  • The Loud House
  • Wild Eyed and Wicked
  • The Daily Show
  • Peggy Sue Got Married
  • Unsung Hero
  • Survivor

Recent Comments

  • KissclTum: [url=https://kisstom.ru/prices]имплант с коронкой цена кисс [/url] Tegs: и...
  • Diggety247:

    BrokenHanded, Try using a DL manager.

  • BrokenHanded: clicknupload does not seem to work for past few days. keep getting an error saying the site is sendi...
  • Bud: Helps if you actually add these to the "Late Night with Seth Meyers" page too...
  • rambaldi70:

    Hy! Right now, my download speed : 1 Mb/s
    this is ok?
    Tx answer

  • Cinque_Persson: At 183 MB this had to be something completely different. In fact it's just the main actors commentin...
  • meyat74:

    my bad, should be full season

  • Oscar2:

    Halo "is" a good show

  • MeH:

    "one of the most impressive scenes"

  • rappet:

    Unfortunately, episode 2 not playing and episode 3 half missing (only 37 minutes long).

  • Anovani:

    Nice 1

  • shark:

    Will there be a sequel?

  • sjors:

    This release in in Russian with Russian subs. No English.

  • RapidRabbit98: I'll ask again Forged in Fire Series 11 episode 1 - anyone have it?

Archives