Sign Up   |   Sign In  
Real Time with Bill MaherS.W.A.T.The Bold and the BeautifulKoyaanisqatsiWhite BirdThe Breaking IceRebel Moon - Part Two: The ScargiverThe Spiderwick ChroniclesBeyond ParadiseYoung SheldonLate Night with the DevilBooksmartSugarA Gentleman in MoscowAsphalt CityGhostsBlood for DustProblemistaElsbethLaw & Order: Special Victims UnitManhuntGhostbusters: Frozen EmpireThe Three Musketeers - Part II: MiladyRiver WildStar Trek: Discovery

Announcements

03/29

2024

No

Comments

Station 19 S07E03 True Colors 1080p AMZN WEB-DL DDP5 1 H 264-NTb
[RR/NF]
Size: 3GB mkv H264 (HIGH) / EAC3  HD  1920x1080

Station 19
File Information
[img]http://lookpic.com/cdn/i2/t/0329202417144501-1.jpg[/img]
[img]http://lookpic.com/cdn/i2/t/0329202417144501-2.jpg[/img]
[img]http://lookpic.com/cdn/i2/t/0329202417144501-3.jpg[/img]

General
Unique ID                                : 224350918128894801522574559508827087303 (0xA8C86A45CC155D08C679113EE47E21C7)
Complete name                            : Station 19 S07E03 True Colors 1080p AMZN WEB-DL DDP5 1 H 264-NTb.mkv
Format                                   : Matroska
Format version                           : Version 4
File size                                : 2.98 GiB
Duration                                 : 42 min 34 s
Overall bit rate                         : 10.0 Mb/s
Frame rate                               : 23.976 FPS
Writing application                      : mkvmerge v81.0 ('Milliontown') 64-bit
Writing library                          : libebml v1.4.4 + libmatroska v1.7.1

Video
ID                                       : 1
Format                                   : AVC
Format/Info                              : Advanced Video Codec
Format profile                           : High@L4
Format settings                          : CABAC / 4 Ref Frames
Format settings, CABAC                   : Yes
Format settings, Reference frames        : 4 frames
Codec ID                                 : V_MPEG4/ISO/AVC
Duration                                 : 42 min 34 s
Bit rate mode                            : Constant
Bit rate                                 : 9 378 kb/s
Nominal bit rate                         : 10 000 kb/s
Width                                    : 1 920 pixels
Height                                   : 1 080 pixels
Display aspect ratio                     : 16:9
Frame rate mode                          : Constant
Frame rate                               : 23.976 (24000/1001) FPS
Color space                              : YUV
Chroma subsampling                       : 4:2:0
Bit depth                                : 8 bits
Scan type                                : Progressive
Bits/(Pixel*Frame)                       : 0.189
Stream size                              : 2.79 GiB (94%)
Default                                  : Yes
Forced                                   : No
Color range                              : Limited
Color primaries                          : BT.709
Transfer characteristics                 : BT.709
Matrix coefficients                      : BT.709

Audio
ID                                       : 2
Format                                   : E-AC-3
Format/Info                              : Enhanced AC-3
Commercial name                          : Dolby Digital Plus
Codec ID                                 : A_EAC3
Duration                                 : 42 min 34 s
Bit rate mode                            : Constant
Bit rate                                 : 640 kb/s
Channel(s)                               : 6 channels
Channel layout                           : L R C LFE Ls Rs
Sampling rate                            : 48.0 kHz
Frame rate                               : 31.250 FPS (1536 SPF)
Compression mode                         : Lossy
Stream size                              : 195 MiB (6%)
Language                                 : English (US)
Service kind                             : Complete Main
Default                                  : Yes
Forced                                   : No

Text #1
ID                                       : 3
Format                                   : UTF-8
Codec ID                                 : S_TEXT/UTF8
Codec ID/Info                            : UTF-8 Plain Text
Duration                                 : 41 min 44 s
Bit rate                                 : 109 b/s
Frame rate                               : 0.341 FPS
Count of elements                        : 855
Stream size                              : 33.6 KiB (0%)
Language                                 : English (US)
Default                                  : No
Forced                                   : No

Text #2
ID                                       : 4
Format                                   : UTF-8
Codec ID                                 : S_TEXT/UTF8
Codec ID/Info                            : UTF-8 Plain Text
Duration                                 : 41 min 44 s
Bit rate                                 : 120 b/s
Frame rate                               : 0.363 FPS
Count of elements                        : 910
Stream size                              : 36.8 KiB (0%)
Title                                    : SDH
Language                                 : English (US)
Default                                  : No
Forced                                   : No



Download
File Container: MKV
Video/Audio Codec: H264 (HIGH) EAC3
Video Resolution: 1920x1080
Please Login to post a comment.
If you don't have any account, please Register.
  • Subscribe my Feeds
  • Facebook
Encoding Queue:  x264  x265

Latest Episodes

Popular Movies and TV Shows

  • Real Time with Bill Maher
  • S.W.A.T.
  • The Bold and the Beautiful
  • Koyaanisqatsi
  • White Bird
  • The Breaking Ice
  • Rebel Moon - Part Two: The Scargiver
  • The Spiderwick Chronicles
  • Beyond Paradise
  • Young Sheldon
  • Late Night with the Devil
  • Booksmart
  • Sugar
  • A Gentleman in Moscow
  • Asphalt City
  • Ghosts
  • Blood for Dust
  • Problemista
  • Elsbeth
  • Law & Order: Special Victims Unit
  • Manhunt
  • Ghostbusters: Frozen Empire
  • The Three Musketeers - Part II: Milady
  • River Wild
  • Star Trek: Discovery

Recent Comments

  • gusmac67:

    Clickupload link is corrupt. File bad at 38 min

  • timt:

    Narrated Movie!

  • Richardexamp: I recently stumbled upon https://asiancasinos.org/ and I obligated to symbolize, it has with dispatc...
  • 23d1:

    ClicknUpload link is missing

  • yopo:

    NitroFlare's link is missing !!!

  • yopo:

    NitroFlare's link is missing !!!

  • yopo:

    NitroFlare's link is missing !!!
    Clicknupload's link is missing !!!

  • yopo:

    NitroFlare's link is missing !!!

  • dragonnightfire: I have tried contacting Rapid Rar to find out what is going on with the server maintainance. I am no...
  • dragonnightfire:

    RR links dead on 5 eps

  • Draveren: hi. can we solve this "server under maintenance" stuff, already? if back in the day i'd ke...
  • Majnon: The links are dead. Please re-upload
  • timt:

    Anyone have the movie "Shoot" (1976) to post?

  • Nightshade: Hey, it appears at least the RMTeam separate episodes and ION's packs for the first two seasons of t...
  • Bigfishguy:

    There's no free option to download this video. Can someone please upload it to clicknupload?

  • timt:

    Junk

  • timt:

    CAM Audio

  • timt:

    Hard Coded SUMS! Russian, I Think.

  • ubirattan:

    Mandem um Fikper, por favor.

  • kellym2: No answer yet for my query - why all the episodes "server under maintenance" on some episo...

Archives