Sign Up   |   Sign In  
Break PointMy Adventures with SupermanDaaaaaali!Ready, Set, LoveYou Can Live ForeverWithin These WallsMayor of KingstownHotel CocaineInterview with the VampireOctopussyLook to the LightFramed by My HusbandBilly the KidLadies in BlackThe Loud HouseKung Fu HustleLicence to KillThere's Something About MaryWWE NXTWalkerThe Bold and the BeautifulVice News Presents: Mass Shooting AmericaMy Sexual Abuse: The SitcomInside Out 2The Daily Show

Announcements

05/24

2024

1

Comments

Station 19 S07E09 How Am I Supposed To Live Without You 720p AMZN WEB-DL DDP5 1 H 264-FLUX
[RR/NF/CU]
Size: 1.5GB mkv H264 (HIGH) / EAC3  HD  1280x720

Station 19
File Information
[img]http://lookpic.com/cdn/i2/t/0524202409402227-1.jpg[/img]
[img]http://lookpic.com/cdn/i2/t/0524202409402227-2.jpg[/img]
[img]http://lookpic.com/cdn/i2/t/0524202409402227-3.jpg[/img]

General
Unique ID                                : 289103634896952105118483229929940784518 (0xD97F55B20A37B5D2FA8B951A4EAD1586)
Complete name                            : Station 19 S07E09 How Am I Supposed To Live Without You 720p AMZN WEB-DL DDP5 1 H 264-FLUX.mkv
Format                                   : Matroska
Format version                           : Version 4
File size                                : 1.51 GiB
Duration                                 : 42 min 3 s
Overall bit rate                         : 5 137 kb/s
Frame rate                               : 23.976 FPS
Writing application                      : mkvmerge v83.0 ('Circle Of Friends') 64-bit
Writing library                          : libebml v1.4.5 + libmatroska v1.7.1

Video
ID                                       : 1
Format                                   : AVC
Format/Info                              : Advanced Video Codec
Format profile                           : High@L3.1
Format settings                          : CABAC / 4 Ref Frames
Format settings, CABAC                   : Yes
Format settings, Reference frames        : 4 frames
Codec ID                                 : V_MPEG4/ISO/AVC
Duration                                 : 42 min 3 s
Bit rate mode                            : Constant
Bit rate                                 : 4 495 kb/s
Nominal bit rate                         : 6 000 kb/s
Width                                    : 1 280 pixels
Height                                   : 720 pixels
Display aspect ratio                     : 16:9
Frame rate mode                          : Constant
Frame rate                               : 23.976 (24000/1001) FPS
Color space                              : YUV
Chroma subsampling                       : 4:2:0
Bit depth                                : 8 bits
Scan type                                : Progressive
Bits/(Pixel*Frame)                       : 0.203
Stream size                              : 1.32 GiB (87%)
Language                                 : English (US)
Default                                  : Yes
Forced                                   : No
Color range                              : Limited
Color primaries                          : BT.709
Transfer characteristics                 : BT.709
Matrix coefficients                      : BT.709

Audio
ID                                       : 2
Format                                   : E-AC-3
Format/Info                              : Enhanced AC-3
Commercial name                          : Dolby Digital Plus
Codec ID                                 : A_EAC3
Duration                                 : 42 min 3 s
Bit rate mode                            : Constant
Bit rate                                 : 640 kb/s
Channel(s)                               : 6 channels
Channel layout                           : L R C LFE Ls Rs
Sampling rate                            : 48.0 kHz
Frame rate                               : 31.250 FPS (1536 SPF)
Compression mode                         : Lossy
Stream size                              : 193 MiB (12%)
Language                                 : English
Service kind                             : Complete Main
Default                                  : Yes
Forced                                   : No

Text #1
ID                                       : 3
Format                                   : UTF-8
Codec ID                                 : S_TEXT/UTF8
Codec ID/Info                            : UTF-8 Plain Text
Duration                                 : 41 min 28 s
Bit rate                                 : 95 b/s
Frame rate                               : 0.370 FPS
Count of elements                        : 922
Stream size                              : 29.2 KiB (0%)
Language                                 : English (US)
Default                                  : No
Forced                                   : No

Text #2
ID                                       : 4
Format                                   : UTF-8
Codec ID                                 : S_TEXT/UTF8
Codec ID/Info                            : UTF-8 Plain Text
Duration                                 : 41 min 53 s
Bit rate                                 : 99 b/s
Frame rate                               : 0.398 FPS
Count of elements                        : 1000
Stream size                              : 30.6 KiB (0%)
Title                                    : SDH
Language                                 : English (US)
Default                                  : No
Forced                                   : No

Menu
00:00:00.000                             : en:Scene 1
00:41:18.000                             : en:End Credits



Download
File Container: MKV
Video/Audio Codec: H264 (HIGH) EAC3
Video Resolution: 1280x720

1 Response to "[RR/NF/CU] Station 19 S07E09 How Am I Supposed To Live Without You 720p AMZN WEB-DL DDP5 1 H 264-FLUX (1.5GB)"
05/24/24
14:16:40
ReadyPlayerOne

Thank You

Please Login to post a comment.
If you don't have any account, please Register.
  • Subscribe my Feeds
  • Facebook
Encoding Queue:  x264  x265

Latest Episodes

Popular Movies and TV Shows

  • Break Point
  • My Adventures with Superman
  • Daaaaaali!
  • Ready, Set, Love
  • You Can Live Forever
  • Within These Walls
  • Mayor of Kingstown
  • Hotel Cocaine
  • Interview with the Vampire
  • Octopussy
  • Look to the Light
  • Framed by My Husband
  • Billy the Kid
  • Ladies in Black
  • The Loud House
  • Kung Fu Hustle
  • Licence to Kill
  • There's Something About Mary
  • WWE NXT
  • Walker
  • The Bold and the Beautiful
  • Vice News Presents: Mass Shooting America
  • My Sexual Abuse: The Sitcom
  • Inside Out 2
  • The Daily Show

Recent Comments

Archives