Sign Up   |   Sign In  
Ghostbusters: Frozen EmpireStar Wars: The Bad BatchX-Men '97Under the BridgeAn American Bombing: The Road to April 19thJimmy Carr: Natural Born KillerFBIThe Cleaning LadyFBI: InternationalGodzilla x Kong: The New EmpireLa noche de los asesinosDune: Part TwoFBI: Most WantedPalm RoyaleShogunLa margeImmaculateProject DorothyNCISCurb Your EnthusiasmNCIS: Hawai'iSweet DreamsThe Deadly SwarmThe 100th: Billy Joel at Madison Square Garden - The Greatest Arena Run of All TimeFallout

Announcements

03/28

2024

No

Comments

The Baxters 2024 S01E01 Under the Surface 1080p AMZN WEB-DL DDP5 1 H 264-NTb
[RR/NF]
Size: 2.4GB mkv H264 (HIGH) / EAC3  HD  1920x960

The Baxters
File Information
[img]http://lookpic.com/cdn/i2/t/0328202420500669-1.jpg[/img]
[img]http://lookpic.com/cdn/i2/t/0328202420500669-2.jpg[/img]
[img]http://lookpic.com/cdn/i2/t/0328202420500669-3.jpg[/img]

General
Unique ID                                : 236603244461847818065246102250690659803 (0xB2002099ABA107EC542FC508C17B45DB)
Complete name                            : The Baxters 2024 S01E01 Under the Surface 1080p AMZN WEB-DL DDP5 1 H 264-NTb.mkv
Format                                   : Matroska
Format version                           : Version 4
File size                                : 2.35 GiB
Duration                                 : 40 min 59 s
Overall bit rate                         : 8 211 kb/s
Frame rate                               : 23.976 FPS
Writing application                      : mkvmerge v81.0 ('Milliontown') 64-bit
Writing library                          : libebml v1.4.4 + libmatroska v1.7.1

Video
ID                                       : 1
Format                                   : AVC
Format/Info                              : Advanced Video Codec
Format profile                           : High@L4
Format settings                          : CABAC / 4 Ref Frames
Format settings, CABAC                   : Yes
Format settings, Reference frames        : 4 frames
Codec ID                                 : V_MPEG4/ISO/AVC
Duration                                 : 40 min 59 s
Bit rate mode                            : Constant
Bit rate                                 : 7 568 kb/s
Nominal bit rate                         : 10 000 kb/s
Width                                    : 1 920 pixels
Height                                   : 960 pixels
Display aspect ratio                     : 2.000
Frame rate mode                          : Constant
Frame rate                               : 23.976 (24000/1001) FPS
Color space                              : YUV
Chroma subsampling                       : 4:2:0
Bit depth                                : 8 bits
Scan type                                : Progressive
Bits/(Pixel*Frame)                       : 0.171
Stream size                              : 2.17 GiB (92%)
Default                                  : Yes
Forced                                   : No
Color range                              : Limited
Color primaries                          : BT.709
Transfer characteristics                 : BT.709
Matrix coefficients                      : BT.709

Audio
ID                                       : 2
Format                                   : E-AC-3
Format/Info                              : Enhanced AC-3
Commercial name                          : Dolby Digital Plus
Codec ID                                 : A_EAC3
Duration                                 : 40 min 59 s
Bit rate mode                            : Constant
Bit rate                                 : 640 kb/s
Channel(s)                               : 6 channels
Channel layout                           : L R C LFE Ls Rs
Sampling rate                            : 48.0 kHz
Frame rate                               : 31.250 FPS (1536 SPF)
Compression mode                         : Lossy
Stream size                              : 188 MiB (8%)
Language                                 : English (US)
Service kind                             : Complete Main
Default                                  : Yes
Forced                                   : No

Text #1
ID                                       : 3
Format                                   : UTF-8
Codec ID                                 : S_TEXT/UTF8
Codec ID/Info                            : UTF-8 Plain Text
Duration                                 : 39 min 45 s
Bit rate                                 : 76 b/s
Frame rate                               : 0.295 FPS
Count of elements                        : 703
Stream size                              : 22.2 KiB (0%)
Language                                 : English (US)
Default                                  : No
Forced                                   : No

Text #2
ID                                       : 4
Format                                   : UTF-8
Codec ID                                 : S_TEXT/UTF8
Codec ID/Info                            : UTF-8 Plain Text
Duration                                 : 39 min 56 s
Bit rate                                 : 82 b/s
Frame rate                               : 0.323 FPS
Count of elements                        : 773
Stream size                              : 24.1 KiB (0%)
Title                                    : SDH
Language                                 : English (US)
Default                                  : No
Forced                                   : No

Text #3
ID                                       : 5
Format                                   : UTF-8
Codec ID                                 : S_TEXT/UTF8
Codec ID/Info                            : UTF-8 Plain Text
Duration                                 : 40 min 25 s
Bit rate                                 : 68 b/s
Frame rate                               : 0.237 FPS
Count of elements                        : 575
Stream size                              : 20.2 KiB (0%)
Language                                 : German (DE)
Default                                  : No
Forced                                   : No

Text #4
ID                                       : 6
Format                                   : UTF-8
Codec ID                                 : S_TEXT/UTF8
Codec ID/Info                            : UTF-8 Plain Text
Duration                                 : 40 min 33 s
Bit rate                                 : 68 b/s
Frame rate                               : 0.241 FPS
Count of elements                        : 586
Stream size                              : 20.4 KiB (0%)
Title                                    : Spanish (Latin America)
Language                                 : Spanish (Latin America)
Default                                  : No
Forced                                   : No

Text #5
ID                                       : 7
Format                                   : UTF-8
Codec ID                                 : S_TEXT/UTF8
Codec ID/Info                            : UTF-8 Plain Text
Duration                                 : 40 min 33 s
Bit rate                                 : 62 b/s
Frame rate                               : 0.237 FPS
Count of elements                        : 577
Stream size                              : 18.7 KiB (0%)
Title                                    : Spanish (Spain)
Language                                 : Spanish (ES)
Default                                  : No
Forced                                   : No

Text #6
ID                                       : 8
Format                                   : UTF-8
Codec ID                                 : S_TEXT/UTF8
Codec ID/Info                            : UTF-8 Plain Text
Duration                                 : 40 min 25 s
Bit rate                                 : 69 b/s
Frame rate                               : 0.238 FPS
Count of elements                        : 577
Stream size                              : 20.5 KiB (0%)
Language                                 : French (FR)
Default                                  : No
Forced                                   : No

Text #7
ID                                       : 9
Format                                   : UTF-8
Codec ID                                 : S_TEXT/UTF8
Codec ID/Info                            : UTF-8 Plain Text
Duration                                 : 40 min 33 s
Bit rate                                 : 173 b/s
Frame rate                               : 0.238 FPS
Count of elements                        : 579
Stream size                              : 51.5 KiB (0%)
Language                                 : Hindi (IN)
Default                                  : No
Forced                                   : No

Text #8
ID                                       : 10
Format                                   : UTF-8
Codec ID                                 : S_TEXT/UTF8
Codec ID/Info                            : UTF-8 Plain Text
Duration                                 : 40 min 33 s
Bit rate                                 : 64 b/s
Frame rate                               : 0.237 FPS
Count of elements                        : 577
Stream size                              : 19.3 KiB (0%)
Language                                 : Italian (IT)
Default                                  : No
Forced                                   : No

Text #9
ID                                       : 11
Format                                   : UTF-8
Codec ID                                 : S_TEXT/UTF8
Codec ID/Info                            : UTF-8 Plain Text
Duration                                 : 40 min 32 s
Bit rate                                 : 58 b/s
Frame rate                               : 0.249 FPS
Count of elements                        : 606
Stream size                              : 17.4 KiB (0%)
Language                                 : Japanese (JP)
Default                                  : No
Forced                                   : No

Text #10
ID                                       : 12
Format                                   : UTF-8
Codec ID                                 : S_TEXT/UTF8
Codec ID/Info                            : UTF-8 Plain Text
Duration                                 : 40 min 25 s
Bit rate                                 : 67 b/s
Frame rate                               : 0.238 FPS
Count of elements                        : 577
Stream size                              : 20.0 KiB (0%)
Language                                 : Portuguese (BR)
Default                                  : No
Forced                                   : No

Menu
00:00:00.000                             : en:Scene 1
00:01:02.000                             : en:Scene 2
00:03:45.000                             : en:Scene 3
00:04:19.000                             : en:Scene 4
00:05:42.000                             : en:Scene 5
00:07:20.000                             : en:Scene 6
00:07:47.000                             : en:Scene 7
00:08:26.000                             : en:Scene 8
00:08:57.000                             : en:Scene 9
00:09:29.000                             : en:Scene 10
00:11:07.000                             : en:Scene 11
00:11:54.000                             : en:Scene 12
00:13:18.000                             : en:Scene 13
00:15:03.000                             : en:Scene 14
00:16:10.000                             : en:Scene 15
00:18:16.000                             : en:Scene 16
00:20:29.000                             : en:Scene 17
00:21:10.000                             : en:Scene 18
00:25:41.000                             : en:Scene 19
00:27:03.000                             : en:Scene 20
00:31:00.000                             : en:Scene 21
00:31:56.000                             : en:Scene 22
00:33:17.000                             : en:Scene 23
00:33:45.000                             : en:Scene 24
00:36:48.000                             : en:Scene 25
00:37:22.000                             : en:Scene 26
00:39:21.000                             : en:Scene 27
00:40:13.000                             : en:Scene 28



Download
File Container: MKV
Video/Audio Codec: H264 (HIGH) EAC3
Video Resolution: 1920x960
Please Login to post a comment.
If you don't have any account, please Register.
  • Subscribe my Feeds
  • Facebook
Encoding Queue:  x264  x265

Latest Episodes

Popular Movies and TV Shows

  • Ghostbusters: Frozen Empire
  • Star Wars: The Bad Batch
  • X-Men '97
  • Under the Bridge
  • An American Bombing: The Road to April 19th
  • Jimmy Carr: Natural Born Killer
  • FBI
  • The Cleaning Lady
  • FBI: International
  • Godzilla x Kong: The New Empire
  • La noche de los asesinos
  • Dune: Part Two
  • FBI: Most Wanted
  • Palm Royale
  • Shogun
  • La marge
  • Immaculate
  • Project Dorothy
  • NCIS
  • Curb Your Enthusiasm
  • NCIS: Hawai'i
  • Sweet Dreams
  • The Deadly Swarm
  • The 100th: Billy Joel at Madison Square Garden - The Greatest Arena Run of All Time
  • Fallout

Recent Comments

  • ubirattan:

    Mandem um Fikper, por favor.

  • kellym2: No answer yet for my query - why all the episodes "server under maintenance" on some episo...
  • Majnon:

    Rapidrar links are dead :(

  • Rake:

    Loads of "Server is under maintenance" with RR theese days...

  • kellym2: Why am I getting "Server is in maintenance mode" on some episodes of a series and not on o...
  • Bud:

    Are you ever going to put up Thursday's episode with Liev Schreiber?

  • alp-engin:

    When will that maintenance be over? Please...

  • mentalityx:

    Rad bloke

  • DownloadHostInspector:

    so far these RMTeam uploads always have a working link. DownloadHostInspector approved!

  • DownloadHostInspector:

    ah yes, this upload has a host that works. clicknupload. DownloadHostInspector approved!

  • DownloadHostInspector: Why are all the download hosts trash? none of them let you download it

Archives