Sign Up   |   Sign In  
Star Wars: The Bad BatchX-Men '97FBI: Most WantedMonolithMan in the DarkCam PerdeFBIFBI: InternationalThe Big Door PrizeThe Good DinosaurGods of EgyptArthur the KingShogunMonkey ManLootPalm RoyaleDrive-Away DollsMR-9: Do or DieNCISNCIS: Hawai'iThe NeighborhoodDowntown OwlAftermathOne LifeTracker

Announcements

03/28

2024

No

Comments

The Baxters 2024 S01E01 Under the Surface 720p AMZN WEB-DL DDP5 1 H 264-NTb
[RR/NF/CU]
Size: 1GB mkv H264 (HIGH) / EAC3  HD  1280x640

The Baxters
File Information
[img]http://lookpic.com/cdn/i2/t/0328202420411412-1.jpg[/img]
[img]http://lookpic.com/cdn/i2/t/0328202420411412-2.jpg[/img]
[img]http://lookpic.com/cdn/i2/t/0328202420411412-3.jpg[/img]

General
Unique ID                                : 94446709092011484709944801147526358793 (0x470DC646DF1BAB0CA70BF6735724A709)
Complete name                            : The.Baxters.2024.S01E01.Under.the.Surface.720p.AMZN.WEB-DL.DDP5.1.H.264-NTb.mkv
Format                                   : Matroska
Format version                           : Version 4
File size                                : 1.03 GiB
Duration                                 : 40 min 59 s
Overall bit rate                         : 3 610 kb/s
Frame rate                               : 23.976 FPS
Writing application                      : mkvmerge v81.0 ('Milliontown') 64-bit
Writing library                          : libebml v1.4.4 + libmatroska v1.7.1

Video
ID                                       : 1
Format                                   : AVC
Format/Info                              : Advanced Video Codec
Format profile                           : High@L3.1
Format settings                          : CABAC / 4 Ref Frames
Format settings, CABAC                   : Yes
Format settings, Reference frames        : 4 frames
Codec ID                                 : V_MPEG4/ISO/AVC
Duration                                 : 40 min 59 s
Bit rate mode                            : Constant
Bit rate                                 : 2 966 kb/s
Nominal bit rate                         : 4 000 kb/s
Width                                    : 1 280 pixels
Height                                   : 640 pixels
Display aspect ratio                     : 2.000
Frame rate mode                          : Constant
Frame rate                               : 23.976 (24000/1001) FPS
Color space                              : YUV
Chroma subsampling                       : 4:2:0
Bit depth                                : 8 bits
Scan type                                : Progressive
Bits/(Pixel*Frame)                       : 0.151
Stream size                              : 870 MiB (82%)
Default                                  : Yes
Forced                                   : No
Color range                              : Limited
Color primaries                          : BT.709
Transfer characteristics                 : BT.709
Matrix coefficients                      : BT.709

Audio
ID                                       : 2
Format                                   : E-AC-3
Format/Info                              : Enhanced AC-3
Commercial name                          : Dolby Digital Plus
Codec ID                                 : A_EAC3
Duration                                 : 40 min 59 s
Bit rate mode                            : Constant
Bit rate                                 : 640 kb/s
Channel(s)                               : 6 channels
Channel layout                           : L R C LFE Ls Rs
Sampling rate                            : 48.0 kHz
Frame rate                               : 31.250 FPS (1536 SPF)
Compression mode                         : Lossy
Stream size                              : 188 MiB (18%)
Language                                 : English (US)
Service kind                             : Complete Main
Default                                  : Yes
Forced                                   : No

Text #1
ID                                       : 3
Format                                   : UTF-8
Codec ID                                 : S_TEXT/UTF8
Codec ID/Info                            : UTF-8 Plain Text
Duration                                 : 39 min 45 s
Bit rate                                 : 76 b/s
Frame rate                               : 0.295 FPS
Count of elements                        : 703
Stream size                              : 22.2 KiB (0%)
Language                                 : English (US)
Default                                  : No
Forced                                   : No

Text #2
ID                                       : 4
Format                                   : UTF-8
Codec ID                                 : S_TEXT/UTF8
Codec ID/Info                            : UTF-8 Plain Text
Duration                                 : 39 min 56 s
Bit rate                                 : 82 b/s
Frame rate                               : 0.323 FPS
Count of elements                        : 773
Stream size                              : 24.1 KiB (0%)
Title                                    : SDH
Language                                 : English (US)
Default                                  : No
Forced                                   : No

Text #3
ID                                       : 5
Format                                   : UTF-8
Codec ID                                 : S_TEXT/UTF8
Codec ID/Info                            : UTF-8 Plain Text
Duration                                 : 40 min 25 s
Bit rate                                 : 68 b/s
Frame rate                               : 0.237 FPS
Count of elements                        : 575
Stream size                              : 20.2 KiB (0%)
Language                                 : German (DE)
Default                                  : No
Forced                                   : No

Text #4
ID                                       : 6
Format                                   : UTF-8
Codec ID                                 : S_TEXT/UTF8
Codec ID/Info                            : UTF-8 Plain Text
Duration                                 : 40 min 33 s
Bit rate                                 : 68 b/s
Frame rate                               : 0.241 FPS
Count of elements                        : 586
Stream size                              : 20.4 KiB (0%)
Title                                    : Spanish (Latin America)
Language                                 : Spanish (Latin America)
Default                                  : No
Forced                                   : No

Text #5
ID                                       : 7
Format                                   : UTF-8
Codec ID                                 : S_TEXT/UTF8
Codec ID/Info                            : UTF-8 Plain Text
Duration                                 : 40 min 33 s
Bit rate                                 : 62 b/s
Frame rate                               : 0.237 FPS
Count of elements                        : 577
Stream size                              : 18.7 KiB (0%)
Title                                    : Spanish (Spain)
Language                                 : Spanish (ES)
Default                                  : No
Forced                                   : No

Text #6
ID                                       : 8
Format                                   : UTF-8
Codec ID                                 : S_TEXT/UTF8
Codec ID/Info                            : UTF-8 Plain Text
Duration                                 : 40 min 25 s
Bit rate                                 : 69 b/s
Frame rate                               : 0.238 FPS
Count of elements                        : 577
Stream size                              : 20.5 KiB (0%)
Language                                 : French (FR)
Default                                  : No
Forced                                   : No

Text #7
ID                                       : 9
Format                                   : UTF-8
Codec ID                                 : S_TEXT/UTF8
Codec ID/Info                            : UTF-8 Plain Text
Duration                                 : 40 min 33 s
Bit rate                                 : 173 b/s
Frame rate                               : 0.238 FPS
Count of elements                        : 579
Stream size                              : 51.5 KiB (0%)
Language                                 : Hindi (IN)
Default                                  : No
Forced                                   : No

Text #8
ID                                       : 10
Format                                   : UTF-8
Codec ID                                 : S_TEXT/UTF8
Codec ID/Info                            : UTF-8 Plain Text
Duration                                 : 40 min 33 s
Bit rate                                 : 64 b/s
Frame rate                               : 0.237 FPS
Count of elements                        : 577
Stream size                              : 19.3 KiB (0%)
Language                                 : Italian (IT)
Default                                  : No
Forced                                   : No

Text #9
ID                                       : 11
Format                                   : UTF-8
Codec ID                                 : S_TEXT/UTF8
Codec ID/Info                            : UTF-8 Plain Text
Duration                                 : 40 min 32 s
Bit rate                                 : 58 b/s
Frame rate                               : 0.249 FPS
Count of elements                        : 606
Stream size                              : 17.4 KiB (0%)
Language                                 : Japanese (JP)
Default                                  : No
Forced                                   : No

Text #10
ID                                       : 12
Format                                   : UTF-8
Codec ID                                 : S_TEXT/UTF8
Codec ID/Info                            : UTF-8 Plain Text
Duration                                 : 40 min 25 s
Bit rate                                 : 67 b/s
Frame rate                               : 0.238 FPS
Count of elements                        : 577
Stream size                              : 20.0 KiB (0%)
Language                                 : Portuguese (BR)
Default                                  : No
Forced                                   : No

Menu
00:00:00.000                             : en:Scene 1
00:01:02.000                             : en:Scene 2
00:03:45.000                             : en:Scene 3
00:04:19.000                             : en:Scene 4
00:05:42.000                             : en:Scene 5
00:07:20.000                             : en:Scene 6
00:07:47.000                             : en:Scene 7
00:08:26.000                             : en:Scene 8
00:08:57.000                             : en:Scene 9
00:09:29.000                             : en:Scene 10
00:11:07.000                             : en:Scene 11
00:11:54.000                             : en:Scene 12
00:13:18.000                             : en:Scene 13
00:15:03.000                             : en:Scene 14
00:16:10.000                             : en:Scene 15
00:18:16.000                             : en:Scene 16
00:20:29.000                             : en:Scene 17
00:21:10.000                             : en:Scene 18
00:25:41.000                             : en:Scene 19
00:27:03.000                             : en:Scene 20
00:31:00.000                             : en:Scene 21
00:31:56.000                             : en:Scene 22
00:33:17.000                             : en:Scene 23
00:33:45.000                             : en:Scene 24
00:36:48.000                             : en:Scene 25
00:37:22.000                             : en:Scene 26
00:39:21.000                             : en:Scene 27
00:40:13.000                             : en:Scene 28



Download
File Container: MKV
Video/Audio Codec: H264 (HIGH) EAC3
Video Resolution: 1280x640
Please Login to post a comment.
If you don't have any account, please Register.
  • Subscribe my Feeds
  • Facebook
Encoding Queue:  x264  x265

Latest Episodes

Popular Movies and TV Shows

  • Star Wars: The Bad Batch
  • X-Men '97
  • FBI: Most Wanted
  • Monolith
  • Man in the Dark
  • Cam Perde
  • FBI
  • FBI: International
  • The Big Door Prize
  • The Good Dinosaur
  • Gods of Egypt
  • Arthur the King
  • Shogun
  • Monkey Man
  • Loot
  • Palm Royale
  • Drive-Away Dolls
  • MR-9: Do or Die
  • NCIS
  • NCIS: Hawai'i
  • The Neighborhood
  • Downtown Owl
  • Aftermath
  • One Life
  • Tracker

Recent Comments

  • Oscar2:

    Sorry, NITROFLARE links are dead, should've checked them first

    RAPIDGATOR links are OK

  • ReadyPlayerOne:

    THANK YOU

  • ReadyPlayerOne:

    THANK YOU

  • ReadyPlayerOne:

    THANK YOU

  • mentalityx:

    Thx dude.

  • 89M:

    NitroFlare's link is missing !!!
    Clicknupload's link is missing !!!

  • V4ND4L: May we get a ClicknUpload link for this, please. It's conspicuously missing for the team/size.
  • Bud:

    The file's half the size it should be & corrupted. Useless. Avoid.

  • mentalityx:

    Rad dude

  • mentalityx:

    Rad mate

  • waanaabe:

    I tried this file with 3 different players which all said they couldn't read the codec

  • Rosa: hi i have a question,this file size is 198mb,but on clickenupload is only 118mb is it right? what ha...
  • mike1204:

    Any reason why this episode is omitted from 'click'n'upload??

  • kellym2: I appreciate all the hard work the team does BUT there is no point in my paying for a Premium subscr...

Archives