Sign Up   |   Sign In  
ShogunNCISImmaculateNCIS: Hawai'iSweet DreamsThe Crow: SalvationThe NeighborhoodBob Hearts AbisholaAll AmericanDune: Part TwoThe 100th: Billy Joel at Madison Square Garden - The Greatest Arena Run of All TimeDangerous WatersThe SympathizerFamily GuyTrackerStill: A Michael J. Fox MovieKiller Fortune TellerMoney TalksThe Great NorthHundreds of BeaversModel HouseWhen Calls the HeartSullivan's CrossingAbba: How They Won EurovisionFallout

Announcements

03/29

2024

No

Comments

The Baxters 2024 S02E12 Its Not Perfect 1080p AMZN WEB-DL DDP5 1 H 264-NTb
[RR/NF/CU]
Size: 1.6GB mkv H264 (HIGH) / EAC3  HD  1920x960

The Baxters
File Information
[img]http://lookpic.com/cdn/i2/t/0329202405360614-1.jpg[/img]
[img]http://lookpic.com/cdn/i2/t/0329202405360614-2.jpg[/img]
[img]http://lookpic.com/cdn/i2/t/0329202405360614-3.jpg[/img]

General
Unique ID                                : 305231837554850689598527523233595773401 (0xE5A1837AD00BA16293C314931775D1D9)
Complete name                            : The Baxters 2024 S02E12 Its Not Perfect 1080p AMZN WEB-DL DDP5 1 H 264-NTb.mkv
Format                                   : Matroska
Format version                           : Version 4
File size                                : 1.57 GiB
Duration                                 : 24 min 3 s
Overall bit rate                         : 9 326 kb/s
Frame rate                               : 23.976 FPS
Writing application                      : mkvmerge v81.0 ('Milliontown') 64-bit
Writing library                          : libebml v1.4.4 + libmatroska v1.7.1

Video
ID                                       : 1
Format                                   : AVC
Format/Info                              : Advanced Video Codec
Format profile                           : High@L4
Format settings                          : CABAC / 4 Ref Frames
Format settings, CABAC                   : Yes
Format settings, Reference frames        : 4 frames
Codec ID                                 : V_MPEG4/ISO/AVC
Duration                                 : 24 min 3 s
Bit rate mode                            : Constant
Bit rate                                 : 8 683 kb/s
Nominal bit rate                         : 10 000 kb/s
Width                                    : 1 920 pixels
Height                                   : 960 pixels
Display aspect ratio                     : 2.000
Frame rate mode                          : Constant
Frame rate                               : 23.976 (24000/1001) FPS
Color space                              : YUV
Chroma subsampling                       : 4:2:0
Bit depth                                : 8 bits
Scan type                                : Progressive
Bits/(Pixel*Frame)                       : 0.196
Stream size                              : 1.46 GiB (93%)
Default                                  : Yes
Forced                                   : No
Color range                              : Limited
Color primaries                          : BT.709
Transfer characteristics                 : BT.709
Matrix coefficients                      : BT.709

Audio
ID                                       : 2
Format                                   : E-AC-3
Format/Info                              : Enhanced AC-3
Commercial name                          : Dolby Digital Plus
Codec ID                                 : A_EAC3
Duration                                 : 24 min 3 s
Bit rate mode                            : Constant
Bit rate                                 : 640 kb/s
Channel(s)                               : 6 channels
Channel layout                           : L R C LFE Ls Rs
Sampling rate                            : 48.0 kHz
Frame rate                               : 31.250 FPS (1536 SPF)
Compression mode                         : Lossy
Stream size                              : 110 MiB (7%)
Language                                 : English (US)
Service kind                             : Complete Main
Default                                  : Yes
Forced                                   : No

Text #1
ID                                       : 3
Format                                   : UTF-8
Codec ID                                 : S_TEXT/UTF8
Codec ID/Info                            : UTF-8 Plain Text
Duration                                 : 23 min 4 s
Bit rate                                 : 61 b/s
Frame rate                               : 0.220 FPS
Count of elements                        : 304
Stream size                              : 10.5 KiB (0%)
Language                                 : English (US)
Default                                  : No
Forced                                   : No

Text #2
ID                                       : 4
Format                                   : UTF-8
Codec ID                                 : S_TEXT/UTF8
Codec ID/Info                            : UTF-8 Plain Text
Duration                                 : 23 min 13 s
Bit rate                                 : 65 b/s
Frame rate                               : 0.232 FPS
Count of elements                        : 324
Stream size                              : 11.1 KiB (0%)
Title                                    : SDH
Language                                 : English (US)
Default                                  : No
Forced                                   : No

Text #3
ID                                       : 5
Format                                   : UTF-8
Codec ID                                 : S_TEXT/UTF8
Codec ID/Info                            : UTF-8 Plain Text
Duration                                 : 23 min 46 s
Bit rate                                 : 53 b/s
Frame rate                               : 0.213 FPS
Count of elements                        : 304
Stream size                              : 9.40 KiB (0%)
Language                                 : German (DE)
Default                                  : No
Forced                                   : No

Text #4
ID                                       : 6
Format                                   : UTF-8
Codec ID                                 : S_TEXT/UTF8
Codec ID/Info                            : UTF-8 Plain Text
Duration                                 : 23 min 46 s
Bit rate                                 : 54 b/s
Frame rate                               : 0.213 FPS
Count of elements                        : 304
Stream size                              : 9.52 KiB (0%)
Title                                    : Spanish (Latin America)
Language                                 : Spanish (Latin America)
Default                                  : No
Forced                                   : No

Text #5
ID                                       : 7
Format                                   : UTF-8
Codec ID                                 : S_TEXT/UTF8
Codec ID/Info                            : UTF-8 Plain Text
Duration                                 : 23 min 46 s
Bit rate                                 : 54 b/s
Frame rate                               : 0.214 FPS
Count of elements                        : 305
Stream size                              : 9.47 KiB (0%)
Title                                    : Spanish (Spain)
Language                                 : Spanish (ES)
Default                                  : No
Forced                                   : No

Text #6
ID                                       : 8
Format                                   : UTF-8
Codec ID                                 : S_TEXT/UTF8
Codec ID/Info                            : UTF-8 Plain Text
Duration                                 : 23 min 46 s
Bit rate                                 : 59 b/s
Frame rate                               : 0.212 FPS
Count of elements                        : 302
Stream size                              : 10.3 KiB (0%)
Language                                 : French (FR)
Default                                  : No
Forced                                   : No

Text #7
ID                                       : 9
Format                                   : UTF-8
Codec ID                                 : S_TEXT/UTF8
Codec ID/Info                            : UTF-8 Plain Text
Duration                                 : 23 min 46 s
Bit rate                                 : 144 b/s
Frame rate                               : 0.214 FPS
Count of elements                        : 305
Stream size                              : 25.1 KiB (0%)
Language                                 : Hindi (IN)
Default                                  : No
Forced                                   : No

Text #8
ID                                       : 10
Format                                   : UTF-8
Codec ID                                 : S_TEXT/UTF8
Codec ID/Info                            : UTF-8 Plain Text
Duration                                 : 23 min 46 s
Bit rate                                 : 55 b/s
Frame rate                               : 0.214 FPS
Count of elements                        : 305
Stream size                              : 9.63 KiB (0%)
Language                                 : Italian (IT)
Default                                  : No
Forced                                   : No

Text #9
ID                                       : 11
Format                                   : UTF-8
Codec ID                                 : S_TEXT/UTF8
Codec ID/Info                            : UTF-8 Plain Text
Duration                                 : 23 min 46 s
Bit rate                                 : 49 b/s
Frame rate                               : 0.206 FPS
Count of elements                        : 294
Stream size                              : 8.69 KiB (0%)
Language                                 : Japanese (JP)
Default                                  : No
Forced                                   : No

Text #10
ID                                       : 12
Format                                   : UTF-8
Codec ID                                 : S_TEXT/UTF8
Codec ID/Info                            : UTF-8 Plain Text
Duration                                 : 23 min 46 s
Bit rate                                 : 53 b/s
Frame rate                               : 0.214 FPS
Count of elements                        : 305
Stream size                              : 9.39 KiB (0%)
Language                                 : Portuguese (BR)
Default                                  : No
Forced                                   : No

Menu
00:00:00.000                             : en:Scene 1
00:00:16.000                             : en:Scene 2
00:00:34.000                             : en:Scene 3
00:01:18.000                             : en:Scene 4
00:04:25.000                             : en:Scene 5
00:07:29.000                             : en:Scene 6
00:08:11.000                             : en:Scene 7
00:08:30.000                             : en:Scene 8
00:10:55.000                             : en:Scene 9
00:11:29.000                             : en:Scene 10
00:11:47.000                             : en:Scene 11
00:12:21.000                             : en:Scene 12
00:14:51.000                             : en:Scene 13
00:16:34.000                             : en:Scene 14
00:17:08.000                             : en:Scene 15
00:17:53.000                             : en:Scene 16
00:18:44.000                             : en:Scene 17
00:19:35.000                             : en:Scene 18
00:20:07.000                             : en:Scene 19
00:20:27.000                             : en:Scene 20
00:22:26.000                             : en:Scene 21
00:22:58.000                             : en:Scene 22
00:23:15.000                             : en:Scene 23



Download
File Container: MKV
Video/Audio Codec: H264 (HIGH) EAC3
Video Resolution: 1920x960
Please Login to post a comment.
If you don't have any account, please Register.
  • Subscribe my Feeds
  • Facebook
Encoding Queue:  x264  x265

Latest Episodes

Popular Movies and TV Shows

  • Shogun
  • NCIS
  • Immaculate
  • NCIS: Hawai'i
  • Sweet Dreams
  • The Crow: Salvation
  • The Neighborhood
  • Bob Hearts Abishola
  • All American
  • Dune: Part Two
  • The 100th: Billy Joel at Madison Square Garden - The Greatest Arena Run of All Time
  • Dangerous Waters
  • The Sympathizer
  • Family Guy
  • Tracker
  • Still: A Michael J. Fox Movie
  • Killer Fortune Teller
  • Money Talks
  • The Great North
  • Hundreds of Beavers
  • Model House
  • When Calls the Heart
  • Sullivan's Crossing
  • Abba: How They Won Eurovision
  • Fallout

Recent Comments

  • kellym2: Why am I getting "Server is in maintenance mode" on some episodes of a series and not on o...
  • Bud:

    Are you ever going to put up Thursday's episode with Liev Schreiber?

  • alp-engin:

    When will that maintenance be over? Please...

  • mentalityx:

    Rad bloke

  • DownloadHostInspector:

    so far these RMTeam uploads always have a working link. DownloadHostInspector approved!

  • DownloadHostInspector:

    ah yes, this upload has a host that works. clicknupload. DownloadHostInspector approved!

  • DownloadHostInspector: Why are all the download hosts trash? none of them let you download it
  • Qua4ratic:

    clicknupload link plz

  • ppoo:

    Please, can you add "Real Time with Bill Maher S22E11" ??

  • theahtisham:

    Kindly upload Ep. 3 and 4 as well.

Archives