Sign Up   |   Sign In  
FBIUnder the BridgeFBI: Most WantedGods of EgyptMR-9: Do or DieHanky PankyThe Big Door PrizeFBI: InternationalLootDrive-Away DollsAccidental TexanMy MercuryShogunMonkey ManArthur the KingNCISThe NeighborhoodDowntown OwlNCIS: Hawai'iBob Hearts AbisholaThe SimpsonsAftermathOne LifeTime AddictsTracker

Announcements

03/29

2024

No

Comments

The Baxters 2024 S03E02 Cautionary Tale 1080p AMZN WEB-DL DDP5 1 H 264-NTb
[RR/NF/CU]
Size: 1.4GB mkv H264 (HIGH) / EAC3  HD  1920x960

The Baxters
File Information
[img]http://lookpic.com/cdn/i2/t/0329202405352845-1.jpg[/img]
[img]http://lookpic.com/cdn/i2/t/0329202405352845-2.jpg[/img]
[img]http://lookpic.com/cdn/i2/t/0329202405352845-3.jpg[/img]

General
Unique ID                                : 315372069443031586724702734309031440892 (0xED427382EA82D96D694EF5ADB55C71FC)
Complete name                            : The Baxters 2024 S03E02 Cautionary Tale 1080p AMZN WEB-DL DDP5 1 H 264-NTb.mkv
Format                                   : Matroska
Format version                           : Version 4
File size                                : 1.38 GiB
Duration                                 : 23 min 10 s
Overall bit rate                         : 8 543 kb/s
Frame rate                               : 23.976 FPS
Writing application                      : mkvmerge v81.0 ('Milliontown') 64-bit
Writing library                          : libebml v1.4.4 + libmatroska v1.7.1

Video
ID                                       : 1
Format                                   : AVC
Format/Info                              : Advanced Video Codec
Format profile                           : High@L4
Format settings                          : CABAC / 4 Ref Frames
Format settings, CABAC                   : Yes
Format settings, Reference frames        : 4 frames
Codec ID                                 : V_MPEG4/ISO/AVC
Duration                                 : 23 min 10 s
Bit rate mode                            : Constant
Bit rate                                 : 7 899 kb/s
Nominal bit rate                         : 10 000 kb/s
Width                                    : 1 920 pixels
Height                                   : 960 pixels
Display aspect ratio                     : 2.000
Frame rate mode                          : Constant
Frame rate                               : 23.976 (24000/1001) FPS
Color space                              : YUV
Chroma subsampling                       : 4:2:0
Bit depth                                : 8 bits
Scan type                                : Progressive
Bits/(Pixel*Frame)                       : 0.179
Stream size                              : 1.28 GiB (92%)
Default                                  : Yes
Forced                                   : No
Color range                              : Limited
Color primaries                          : BT.709
Transfer characteristics                 : BT.709
Matrix coefficients                      : BT.709

Audio
ID                                       : 2
Format                                   : E-AC-3
Format/Info                              : Enhanced AC-3
Commercial name                          : Dolby Digital Plus
Codec ID                                 : A_EAC3
Duration                                 : 23 min 10 s
Bit rate mode                            : Constant
Bit rate                                 : 640 kb/s
Channel(s)                               : 6 channels
Channel layout                           : L R C LFE Ls Rs
Sampling rate                            : 48.0 kHz
Frame rate                               : 31.250 FPS (1536 SPF)
Compression mode                         : Lossy
Stream size                              : 106 MiB (7%)
Language                                 : English (US)
Service kind                             : Complete Main
Default                                  : Yes
Forced                                   : No

Text #1
ID                                       : 3
Format                                   : UTF-8
Codec ID                                 : S_TEXT/UTF8
Codec ID/Info                            : UTF-8 Plain Text
Duration                                 : 22 min 16 s
Bit rate                                 : 73 b/s
Frame rate                               : 0.313 FPS
Count of elements                        : 418
Stream size                              : 11.9 KiB (0%)
Language                                 : English (US)
Default                                  : No
Forced                                   : No

Text #2
ID                                       : 4
Format                                   : UTF-8
Codec ID                                 : S_TEXT/UTF8
Codec ID/Info                            : UTF-8 Plain Text
Duration                                 : 22 min 20 s
Bit rate                                 : 77 b/s
Frame rate                               : 0.333 FPS
Count of elements                        : 446
Stream size                              : 12.6 KiB (0%)
Title                                    : SDH
Language                                 : English (US)
Default                                  : No
Forced                                   : No

Text #3
ID                                       : 5
Format                                   : UTF-8
Codec ID                                 : S_TEXT/UTF8
Codec ID/Info                            : UTF-8 Plain Text
Duration                                 : 22 min 53 s
Bit rate                                 : 62 b/s
Frame rate                               : 0.215 FPS
Count of elements                        : 296
Stream size                              : 10.5 KiB (0%)
Language                                 : German (DE)
Default                                  : No
Forced                                   : No

Text #4
ID                                       : 6
Format                                   : UTF-8
Codec ID                                 : S_TEXT/UTF8
Codec ID/Info                            : UTF-8 Plain Text
Duration                                 : 22 min 53 s
Bit rate                                 : 62 b/s
Frame rate                               : 0.216 FPS
Count of elements                        : 297
Stream size                              : 10.5 KiB (0%)
Title                                    : Spanish (Latin America)
Language                                 : Spanish (Latin America)
Default                                  : No
Forced                                   : No

Text #5
ID                                       : 7
Format                                   : UTF-8
Codec ID                                 : S_TEXT/UTF8
Codec ID/Info                            : UTF-8 Plain Text
Duration                                 : 22 min 53 s
Bit rate                                 : 59 b/s
Frame rate                               : 0.215 FPS
Count of elements                        : 296
Stream size                              : 10.1 KiB (0%)
Title                                    : Spanish (Spain)
Language                                 : Spanish (ES)
Default                                  : No
Forced                                   : No

Text #6
ID                                       : 8
Format                                   : UTF-8
Codec ID                                 : S_TEXT/UTF8
Codec ID/Info                            : UTF-8 Plain Text
Duration                                 : 22 min 53 s
Bit rate                                 : 61 b/s
Frame rate                               : 0.215 FPS
Count of elements                        : 296
Stream size                              : 10.3 KiB (0%)
Language                                 : French (FR)
Default                                  : No
Forced                                   : No

Text #7
ID                                       : 9
Format                                   : UTF-8
Codec ID                                 : S_TEXT/UTF8
Codec ID/Info                            : UTF-8 Plain Text
Duration                                 : 22 min 53 s
Bit rate                                 : 148 b/s
Frame rate                               : 0.218 FPS
Count of elements                        : 299
Stream size                              : 25.0 KiB (0%)
Language                                 : Hindi (IN)
Default                                  : No
Forced                                   : No

Text #8
ID                                       : 10
Format                                   : UTF-8
Codec ID                                 : S_TEXT/UTF8
Codec ID/Info                            : UTF-8 Plain Text
Duration                                 : 22 min 53 s
Bit rate                                 : 61 b/s
Frame rate                               : 0.216 FPS
Count of elements                        : 297
Stream size                              : 10.3 KiB (0%)
Language                                 : Italian (IT)
Default                                  : No
Forced                                   : No

Text #9
ID                                       : 11
Format                                   : UTF-8
Codec ID                                 : S_TEXT/UTF8
Codec ID/Info                            : UTF-8 Plain Text
Duration                                 : 22 min 53 s
Bit rate                                 : 54 b/s
Frame rate                               : 0.269 FPS
Count of elements                        : 370
Stream size                              : 9.09 KiB (0%)
Language                                 : Japanese (JP)
Default                                  : No
Forced                                   : No

Text #10
ID                                       : 12
Format                                   : UTF-8
Codec ID                                 : S_TEXT/UTF8
Codec ID/Info                            : UTF-8 Plain Text
Duration                                 : 22 min 53 s
Bit rate                                 : 57 b/s
Frame rate                               : 0.216 FPS
Count of elements                        : 297
Stream size                              : 9.65 KiB (0%)
Language                                 : Portuguese (BR)
Default                                  : No
Forced                                   : No

Menu
00:00:00.000                             : en:Scene 1
00:00:26.000                             : en:Scene 2
00:01:10.000                             : en:Scene 3
00:01:46.000                             : en:Scene 4
00:02:45.000                             : en:Scene 5
00:04:10.000                             : en:Scene 6
00:05:23.000                             : en:Scene 7
00:06:12.000                             : en:Scene 8
00:08:04.000                             : en:Scene 9
00:09:21.000                             : en:Scene 10
00:10:02.000                             : en:Scene 11
00:10:51.000                             : en:Scene 12
00:12:04.000                             : en:Scene 13
00:13:38.000                             : en:Scene 14
00:16:08.000                             : en:Scene 15
00:17:37.000                             : en:Scene 16
00:18:16.000                             : en:Scene 17
00:19:20.000                             : en:Scene 18
00:20:27.000                             : en:Scene 19
00:21:05.000                             : en:Scene 20
00:21:54.000                             : en:Scene 21
00:22:23.000                             : en:Scene 22



Download
File Container: MKV
Video/Audio Codec: H264 (HIGH) EAC3
Video Resolution: 1920x960
Please Login to post a comment.
If you don't have any account, please Register.
  • Subscribe my Feeds
  • Facebook
Encoding Queue:  x264  x265

Latest Episodes

Popular Movies and TV Shows

  • FBI
  • Under the Bridge
  • FBI: Most Wanted
  • Gods of Egypt
  • MR-9: Do or Die
  • Hanky Panky
  • The Big Door Prize
  • FBI: International
  • Loot
  • Drive-Away Dolls
  • Accidental Texan
  • My Mercury
  • Shogun
  • Monkey Man
  • Arthur the King
  • NCIS
  • The Neighborhood
  • Downtown Owl
  • NCIS: Hawai'i
  • Bob Hearts Abishola
  • The Simpsons
  • Aftermath
  • One Life
  • Time Addicts
  • Tracker

Recent Comments

  • ReadyPlayerOne:

    THANK YOU

  • ReadyPlayerOne:

    THANK YOU

  • ReadyPlayerOne:

    THANK YOU

  • mentalityx:

    Thx dude.

  • 89M:

    NitroFlare's link is missing !!!
    Clicknupload's link is missing !!!

  • V4ND4L: May we get a ClicknUpload link for this, please. It's conspicuously missing for the team/size.
  • Bud:

    The file's half the size it should be & corrupted. Useless. Avoid.

  • mentalityx:

    Rad dude

  • mentalityx:

    Rad mate

  • waanaabe:

    I tried this file with 3 different players which all said they couldn't read the codec

  • Rosa: hi i have a question,this file size is 198mb,but on clickenupload is only 118mb is it right? what ha...
  • mike1204:

    Any reason why this episode is omitted from 'click'n'upload??

  • kellym2: I appreciate all the hard work the team does BUT there is no point in my paying for a Premium subscr...
  • Cinque_Persson: Why not skip the old news and hearsay and be constructive: what's the best alternatives for Win, Mac...
  • fallensammer:

    the file on click upload is 119mg onnly and is corrupted

Archives