Sign Up   |   Sign In  
Star Wars: The Bad BatchX-Men '97FBI: InternationalGods of EgyptArthur the KingThe Good DinosaurFBIFBI: Most WantedThe Big Door PrizeMR-9: Do or DieDrive-Away DollsHanky PankyShogunMonkey ManNCISLootAccidental TexanMy MercuryNCIS: Hawai'iThe NeighborhoodBob Hearts AbisholaDowntown OwlAftermathOne LifeTracker

Announcements

04/01

2024

No

Comments

The Baxters 2024 S03E08 A Protest 1080p AMZN WEB-DL DDP5 1 H 264-FLUX
[RR/NF/CU]
Size: 1.6GB mkv H264 (HIGH) / EAC3  HD  1920x960

The Baxters
File Information
[img]http://lookpic.com/cdn/i2/t/0328202416343309-1.jpg[/img]
[img]http://lookpic.com/cdn/i2/t/0328202416343309-2.jpg[/img]
[img]http://lookpic.com/cdn/i2/t/0328202416343309-3.jpg[/img]

General
Unique ID                                : 113860611388213833453990384712752994302 (0x55A8C18F7FE4F51FF3B60A2C123297FE)
Complete name                            : The Baxters 2024 S03E08 A Protest 1080p AMZN WEB-DL DDP5 1 H 264-FLUX.mkv
Format                                   : Matroska
Format version                           : Version 4
File size                                : 1.60 GiB
Duration                                 : 24 min 21 s
Overall bit rate                         : 9 386 kb/s
Frame rate                               : 23.976 FPS
Writing application                      : mkvmerge v81.0 ('Milliontown') 64-bit
Writing library                          : libebml v1.4.4 + libmatroska v1.7.1

Video
ID                                       : 1
Format                                   : AVC
Format/Info                              : Advanced Video Codec
Format profile                           : High@L4
Format settings                          : CABAC / 4 Ref Frames
Format settings, CABAC                   : Yes
Format settings, Reference frames        : 4 frames
Codec ID                                 : V_MPEG4/ISO/AVC
Duration                                 : 24 min 21 s
Bit rate mode                            : Constant
Bit rate                                 : 8 743 kb/s
Nominal bit rate                         : 10 000 kb/s
Width                                    : 1 920 pixels
Height                                   : 960 pixels
Display aspect ratio                     : 2.000
Frame rate mode                          : Constant
Frame rate                               : 23.976 (24000/1001) FPS
Color space                              : YUV
Chroma subsampling                       : 4:2:0
Bit depth                                : 8 bits
Scan type                                : Progressive
Bits/(Pixel*Frame)                       : 0.198
Stream size                              : 1.49 GiB (93%)
Language                                 : English (US)
Default                                  : Yes
Forced                                   : No
Color range                              : Limited
Color primaries                          : BT.709
Transfer characteristics                 : BT.709
Matrix coefficients                      : BT.709

Audio
ID                                       : 2
Format                                   : E-AC-3
Format/Info                              : Enhanced AC-3
Commercial name                          : Dolby Digital Plus
Codec ID                                 : A_EAC3
Duration                                 : 24 min 21 s
Bit rate mode                            : Constant
Bit rate                                 : 640 kb/s
Channel(s)                               : 6 channels
Channel layout                           : L R C LFE Ls Rs
Sampling rate                            : 48.0 kHz
Frame rate                               : 31.250 FPS (1536 SPF)
Compression mode                         : Lossy
Stream size                              : 111 MiB (7%)
Language                                 : English
Service kind                             : Complete Main
Default                                  : Yes
Forced                                   : No

Text #1
ID                                       : 3
Format                                   : UTF-8
Codec ID                                 : S_TEXT/UTF8
Codec ID/Info                            : UTF-8 Plain Text
Duration                                 : 23 min 27 s
Bit rate                                 : 81 b/s
Frame rate                               : 0.303 FPS
Count of elements                        : 426
Stream size                              : 13.9 KiB (0%)
Language                                 : English (US)
Default                                  : No
Forced                                   : No

Text #2
ID                                       : 4
Format                                   : UTF-8
Codec ID                                 : S_TEXT/UTF8
Codec ID/Info                            : UTF-8 Plain Text
Duration                                 : 23 min 31 s
Bit rate                                 : 85 b/s
Frame rate                               : 0.317 FPS
Count of elements                        : 448
Stream size                              : 14.8 KiB (0%)
Title                                    : SDH
Language                                 : English (US)
Default                                  : No
Forced                                   : No

Text #3
ID                                       : 5
Format                                   : UTF-8
Codec ID                                 : S_TEXT/UTF8
Codec ID/Info                            : UTF-8 Plain Text
Duration                                 : 24 min 5 s
Bit rate                                 : 70 b/s
Frame rate                               : 0.228 FPS
Count of elements                        : 330
Stream size                              : 12.4 KiB (0%)
Language                                 : German (DE)
Default                                  : No
Forced                                   : No

Text #4
ID                                       : 6
Format                                   : UTF-8
Codec ID                                 : S_TEXT/UTF8
Codec ID/Info                            : UTF-8 Plain Text
Duration                                 : 24 min 5 s
Bit rate                                 : 67 b/s
Frame rate                               : 0.229 FPS
Count of elements                        : 331
Stream size                              : 11.9 KiB (0%)
Language                                 : Spanish (ES)
Default                                  : No
Forced                                   : No

Text #5
ID                                       : 7
Format                                   : UTF-8
Codec ID                                 : S_TEXT/UTF8
Codec ID/Info                            : UTF-8 Plain Text
Duration                                 : 24 min 5 s
Bit rate                                 : 65 b/s
Frame rate                               : 0.228 FPS
Count of elements                        : 330
Stream size                              : 11.6 KiB (0%)
Language                                 : French (FR)
Default                                  : No
Forced                                   : No

Text #6
ID                                       : 8
Format                                   : UTF-8
Codec ID                                 : S_TEXT/UTF8
Codec ID/Info                            : UTF-8 Plain Text
Duration                                 : 24 min 5 s
Bit rate                                 : 166 b/s
Frame rate                               : 0.229 FPS
Count of elements                        : 331
Stream size                              : 29.5 KiB (0%)
Language                                 : Hindi (IN)
Default                                  : No
Forced                                   : No

Text #7
ID                                       : 9
Format                                   : UTF-8
Codec ID                                 : S_TEXT/UTF8
Codec ID/Info                            : UTF-8 Plain Text
Duration                                 : 24 min 5 s
Bit rate                                 : 68 b/s
Frame rate                               : 0.230 FPS
Count of elements                        : 332
Stream size                              : 12.1 KiB (0%)
Language                                 : Italian (IT)
Default                                  : No
Forced                                   : No

Text #8
ID                                       : 10
Format                                   : UTF-8
Codec ID                                 : S_TEXT/UTF8
Codec ID/Info                            : UTF-8 Plain Text
Duration                                 : 24 min 5 s
Bit rate                                 : 59 b/s
Frame rate                               : 0.271 FPS
Count of elements                        : 391
Stream size                              : 10.5 KiB (0%)
Language                                 : Japanese (JP)
Default                                  : No
Forced                                   : No

Text #9
ID                                       : 11
Format                                   : UTF-8
Codec ID                                 : S_TEXT/UTF8
Codec ID/Info                            : UTF-8 Plain Text
Duration                                 : 24 min 5 s
Bit rate                                 : 68 b/s
Frame rate                               : 0.229 FPS
Count of elements                        : 331
Stream size                              : 12.1 KiB (0%)
Title                                    : Brazilian
Language                                 : Portuguese (BR)
Default                                  : No
Forced                                   : No

Menu
00:00:00.000                             : en:Scene 1
00:00:37.000                             : en:Scene 2
00:01:23.000                             : en:Scene 3
00:03:49.000                             : en:Scene 4
00:05:31.000                             : en:Scene 5
00:06:05.000                             : en:Scene 6
00:06:44.000                             : en:Scene 7
00:07:46.000                             : en:Scene 8
00:09:06.000                             : en:Scene 9
00:10:42.000                             : en:Scene 10
00:11:36.000                             : en:Scene 11
00:12:56.000                             : en:Scene 12
00:14:18.000                             : en:Scene 13
00:14:45.000                             : en:Scene 14
00:15:44.000                             : en:Scene 15
00:16:20.000                             : en:Scene 16
00:16:54.000                             : en:Scene 17
00:17:10.000                             : en:Scene 18
00:17:54.000                             : en:Scene 19
00:18:15.000                             : en:Scene 20
00:18:33.000                             : en:Scene 21
00:19:07.000                             : en:Scene 22
00:20:47.000                             : en:Scene 23
00:21:17.000                             : en:Scene 24
00:22:16.000                             : en:Scene 25
00:23:15.000                             : en:Scene 26
00:23:34.000                             : en:Scene 27



Download
File Container: MKV
Video/Audio Codec: H264 (HIGH) EAC3
Video Resolution: 1920x960
Please Login to post a comment.
If you don't have any account, please Register.
  • Subscribe my Feeds
  • Facebook
Encoding Queue:  x264  x265

Latest Episodes

Popular Movies and TV Shows

  • Star Wars: The Bad Batch
  • X-Men '97
  • FBI: International
  • Gods of Egypt
  • Arthur the King
  • The Good Dinosaur
  • FBI
  • FBI: Most Wanted
  • The Big Door Prize
  • MR-9: Do or Die
  • Drive-Away Dolls
  • Hanky Panky
  • Shogun
  • Monkey Man
  • NCIS
  • Loot
  • Accidental Texan
  • My Mercury
  • NCIS: Hawai'i
  • The Neighborhood
  • Bob Hearts Abishola
  • Downtown Owl
  • Aftermath
  • One Life
  • Tracker

Recent Comments

  • Oscar2:

    Sorry, NITROFLARE links are dead, should've checked them first

    RAPIDGATOR links are OK

  • ReadyPlayerOne:

    THANK YOU

  • ReadyPlayerOne:

    THANK YOU

  • ReadyPlayerOne:

    THANK YOU

  • mentalityx:

    Thx dude.

  • 89M:

    NitroFlare's link is missing !!!
    Clicknupload's link is missing !!!

  • V4ND4L: May we get a ClicknUpload link for this, please. It's conspicuously missing for the team/size.
  • Bud:

    The file's half the size it should be & corrupted. Useless. Avoid.

  • mentalityx:

    Rad dude

  • mentalityx:

    Rad mate

  • waanaabe:

    I tried this file with 3 different players which all said they couldn't read the codec

  • Rosa: hi i have a question,this file size is 198mb,but on clickenupload is only 118mb is it right? what ha...
  • mike1204:

    Any reason why this episode is omitted from 'click'n'upload??

  • kellym2: I appreciate all the hard work the team does BUT there is no point in my paying for a Premium subscr...

Archives