Sign Up   |   Sign In  
Devil in the FleshThe SimpsonsBig City GreensBaby DriverGolden KamuyTsukimichi: Moonlit FantasyTrackerThe EqualizerCSI: VegasChallengersTriple FrontierWild GuitarThe SympathizerKrapopolisBob's BurgersA Walk Among the TombstonesThe Baby DaddyPhil Tippett: Mad Dreams and MonstersYoung SheldonBeacon 23The Great NorthDawn of the Planet of the ApesExhumaEverything PuppiesS.W.A.T.

Announcements

04/24

2024

1

Comments

The Big Door Prize S02E03 Power and Energy 1080p ATVP WEB-DL DDP5 1 Atmos H 264-FLUX
[RR/NF]
Size: 2.5GB mkv H264 (HIGH) / EAC3  HD  1920x872

The Big Door Prize
File Information
[img]http://lookpic.com/cdn/i2/t/0424202405160350-1.jpg[/img]
[img]http://lookpic.com/cdn/i2/t/0424202405160350-2.jpg[/img]
[img]http://lookpic.com/cdn/i2/t/0424202405160350-3.jpg[/img]

General
Unique ID                                : 150986477610658822468257991025799558247 (0x7196F0167718C35D4F39FC8552957467)
Complete name                            : The Big Door Prize S02E03 Power and Energy 1080p ATVP WEB-DL DDP5 1 Atmos H 264-FLUX.mkv
Format                                   : Matroska
Format version                           : Version 4
File size                                : 2.54 GiB
Duration                                 : 33 min 20 s
Overall bit rate                         : 10.9 Mb/s
Frame rate                               : 23.976 FPS
Writing application                      : mkvmerge v81.0 ('Milliontown') 64-bit
Writing library                          : libebml v1.4.4 + libmatroska v1.7.1

Video
ID                                       : 1
Format                                   : AVC
Format/Info                              : Advanced Video Codec
Format profile                           : High@L4
Format settings                          : CABAC / 4 Ref Frames
Format settings, CABAC                   : Yes
Format settings, Reference frames        : 4 frames
Codec ID                                 : V_MPEG4/ISO/AVC
Duration                                 : 33 min 20 s
Bit rate                                 : 10.1 Mb/s
Width                                    : 1 920 pixels
Height                                   : 872 pixels
Display aspect ratio                     : 2.2:1
Frame rate mode                          : Constant
Frame rate                               : 23.976 (24000/1001) FPS
Color space                              : YUV
Chroma subsampling                       : 4:2:0
Bit depth                                : 8 bits
Scan type                                : Progressive
Bits/(Pixel*Frame)                       : 0.253
Stream size                              : 2.36 GiB (93%)
Language                                 : English
Default                                  : Yes
Forced                                   : No
Color range                              : Limited
Color primaries                          : BT.709
Transfer characteristics                 : BT.709
Matrix coefficients                      : BT.709

Audio
ID                                       : 2
Format                                   : E-AC-3 JOC
Format/Info                              : Enhanced AC-3 with Joint Object Coding
Commercial name                          : Dolby Digital Plus with Dolby Atmos
Codec ID                                 : A_EAC3
Duration                                 : 33 min 20 s
Bit rate mode                            : Constant
Bit rate                                 : 768 kb/s
Channel(s)                               : 6 channels
Channel layout                           : L R C LFE Ls Rs
Sampling rate                            : 48.0 kHz
Frame rate                               : 31.250 FPS (1536 SPF)
Compression mode                         : Lossy
Stream size                              : 183 MiB (7%)
Language                                 : English
Service kind                             : Complete Main
Default                                  : Yes
Forced                                   : No
Complexity index                         : 16
Number of dynamic objects                : 15
Bed channel count                        : 1 channel
Bed channel configuration                : LFE

Text #1
ID                                       : 3
Format                                   : UTF-8
Codec ID                                 : S_TEXT/UTF8
Codec ID/Info                            : UTF-8 Plain Text
Duration                                 : 31 min 23 s
Bit rate                                 : 92 b/s
Frame rate                               : 0.296 FPS
Count of elements                        : 557
Stream size                              : 21.2 KiB (0%)
Language                                 : English
Default                                  : No
Forced                                   : No

Text #2
ID                                       : 4
Format                                   : UTF-8
Codec ID                                 : S_TEXT/UTF8
Codec ID/Info                            : UTF-8 Plain Text
Duration                                 : 31 min 23 s
Bit rate                                 : 105 b/s
Frame rate                               : 0.326 FPS
Count of elements                        : 614
Stream size                              : 24.2 KiB (0%)
Title                                    : SDH
Language                                 : English
Default                                  : No
Forced                                   : No

Text #3
ID                                       : 5
Format                                   : UTF-8
Codec ID                                 : S_TEXT/UTF8
Codec ID/Info                            : UTF-8 Plain Text
Duration                                 : 33 min 0 s
Bit rate                                 : 129 b/s
Frame rate                               : 0.286 FPS
Count of elements                        : 567
Stream size                              : 31.4 KiB (0%)
Language                                 : Arabic
Default                                  : No
Forced                                   : No

Text #4
ID                                       : 6
Format                                   : UTF-8
Codec ID                                 : S_TEXT/UTF8
Codec ID/Info                            : UTF-8 Plain Text
Duration                                 : 33 min 0 s
Bit rate                                 : 112 b/s
Frame rate                               : 0.222 FPS
Count of elements                        : 439
Stream size                              : 27.3 KiB (0%)
Language                                 : Bulgarian
Default                                  : No
Forced                                   : No

Text #5
ID                                       : 7
Format                                   : UTF-8
Codec ID                                 : S_TEXT/UTF8
Codec ID/Info                            : UTF-8 Plain Text
Duration                                 : 33 min 0 s
Bit rate                                 : 74 b/s
Frame rate                               : 0.286 FPS
Count of elements                        : 567
Stream size                              : 18.1 KiB (0%)
Title                                    : Simplified
Language                                 : Chinese (Simplified)
Default                                  : No
Forced                                   : No

Text #6
ID                                       : 8
Format                                   : UTF-8
Codec ID                                 : S_TEXT/UTF8
Codec ID/Info                            : UTF-8 Plain Text
Duration                                 : 33 min 0 s
Bit rate                                 : 76 b/s
Frame rate                               : 0.287 FPS
Count of elements                        : 568
Stream size                              : 18.5 KiB (0%)
Title                                    : Traditional
Language                                 : Chinese (Traditional)
Default                                  : No
Forced                                   : No

Text #7
ID                                       : 9
Format                                   : UTF-8
Codec ID                                 : S_TEXT/UTF8
Codec ID/Info                            : UTF-8 Plain Text
Duration                                 : 33 min 0 s
Bit rate                                 : 77 b/s
Frame rate                               : 0.261 FPS
Count of elements                        : 517
Stream size                              : 18.7 KiB (0%)
Language                                 : Czech
Default                                  : No
Forced                                   : No

Text #8
ID                                       : 10
Format                                   : UTF-8
Codec ID                                 : S_TEXT/UTF8
Codec ID/Info                            : UTF-8 Plain Text
Duration                                 : 33 min 0 s
Bit rate                                 : 73 b/s
Frame rate                               : 0.220 FPS
Count of elements                        : 435
Stream size                              : 17.7 KiB (0%)
Language                                 : Danish
Default                                  : No
Forced                                   : No

Text #9
ID                                       : 11
Format                                   : UTF-8
Codec ID                                 : S_TEXT/UTF8
Codec ID/Info                            : UTF-8 Plain Text
Duration                                 : 33 min 8 s
Bit rate                                 : 94 b/s
Frame rate                               : 0.276 FPS
Count of elements                        : 549
Stream size                              : 22.9 KiB (0%)
Language                                 : German
Default                                  : No
Forced                                   : No

Text #10
ID                                       : 12
Format                                   : UTF-8
Codec ID                                 : S_TEXT/UTF8
Codec ID/Info                            : UTF-8 Plain Text
Duration                                 : 33 min 0 s
Bit rate                                 : 138 b/s
Frame rate                               : 0.269 FPS
Count of elements                        : 532
Stream size                              : 33.6 KiB (0%)
Language                                 : Greek
Default                                  : No
Forced                                   : No

Text #11
ID                                       : 13
Format                                   : UTF-8
Codec ID                                 : S_TEXT/UTF8
Codec ID/Info                            : UTF-8 Plain Text
Duration                                 : 33 min 0 s
Bit rate                                 : 86 b/s
Frame rate                               : 0.286 FPS
Count of elements                        : 566
Stream size                              : 21.0 KiB (0%)
Title                                    : Latin American
Language                                 : Spanish (Latin America)
Default                                  : No
Forced                                   : No

Text #12
ID                                       : 14
Format                                   : UTF-8
Codec ID                                 : S_TEXT/UTF8
Codec ID/Info                            : UTF-8 Plain Text
Duration                                 : 33 min 8 s
Bit rate                                 : 87 b/s
Frame rate                               : 0.280 FPS
Count of elements                        : 556
Stream size                              : 21.2 KiB (0%)
Language                                 : Spanish (ES)
Default                                  : No
Forced                                   : No

Text #13
ID                                       : 15
Format                                   : UTF-8
Codec ID                                 : S_TEXT/UTF8
Codec ID/Info                            : UTF-8 Plain Text
Duration                                 : 33 min 0 s
Bit rate                                 : 80 b/s
Frame rate                               : 0.273 FPS
Count of elements                        : 541
Stream size                              : 19.5 KiB (0%)
Language                                 : Estonian
Default                                  : No
Forced                                   : No

Text #14
ID                                       : 16
Format                                   : UTF-8
Codec ID                                 : S_TEXT/UTF8
Codec ID/Info                            : UTF-8 Plain Text
Duration                                 : 33 min 0 s
Bit rate                                 : 69 b/s
Frame rate                               : 0.245 FPS
Count of elements                        : 486
Stream size                              : 16.7 KiB (0%)
Language                                 : Finnish
Default                                  : No
Forced                                   : No

Text #15
ID                                       : 17
Format                                   : UTF-8
Codec ID                                 : S_TEXT/UTF8
Codec ID/Info                            : UTF-8 Plain Text
Duration                                 : 32 min 56 s
Bit rate                                 : 74 b/s
Frame rate                               : 0.287 FPS
Count of elements                        : 567
Stream size                              : 18.1 KiB (0%)
Title                                    : Canadian
Language                                 : French (CA)
Default                                  : No
Forced                                   : No

Text #16
ID                                       : 18
Format                                   : UTF-8
Codec ID                                 : S_TEXT/UTF8
Codec ID/Info                            : UTF-8 Plain Text
Duration                                 : 32 min 56 s
Bit rate                                 : 74 b/s
Frame rate                               : 0.286 FPS
Count of elements                        : 566
Stream size                              : 18.1 KiB (0%)
Language                                 : French (FR)
Default                                  : No
Forced                                   : No

Text #17
ID                                       : 19
Format                                   : UTF-8
Codec ID                                 : S_TEXT/UTF8
Codec ID/Info                            : UTF-8 Plain Text
Duration                                 : 33 min 0 s
Bit rate                                 : 124 b/s
Frame rate                               : 0.286 FPS
Count of elements                        : 567
Stream size                              : 30.0 KiB (0%)
Language                                 : Hebrew
Default                                  : No
Forced                                   : No

Text #18
ID                                       : 20
Format                                   : UTF-8
Codec ID                                 : S_TEXT/UTF8
Codec ID/Info                            : UTF-8 Plain Text
Duration                                 : 33 min 0 s
Bit rate                                 : 227 b/s
Frame rate                               : 0.287 FPS
Count of elements                        : 568
Stream size                              : 54.9 KiB (0%)
Language                                 : Hindi
Default                                  : No
Forced                                   : No

Text #19
ID                                       : 21
Format                                   : UTF-8
Codec ID                                 : S_TEXT/UTF8
Codec ID/Info                            : UTF-8 Plain Text
Duration                                 : 33 min 0 s
Bit rate                                 : 82 b/s
Frame rate                               : 0.282 FPS
Count of elements                        : 558
Stream size                              : 20.0 KiB (0%)
Language                                 : Hungarian
Default                                  : No
Forced                                   : No

Text #20
ID                                       : 22
Format                                   : UTF-8
Codec ID                                 : S_TEXT/UTF8
Codec ID/Info                            : UTF-8 Plain Text
Duration                                 : 33 min 0 s
Bit rate                                 : 85 b/s
Frame rate                               : 0.286 FPS
Count of elements                        : 567
Stream size                              : 20.6 KiB (0%)
Language                                 : Indonesian
Default                                  : No
Forced                                   : No

Text #21
ID                                       : 23
Format                                   : UTF-8
Codec ID                                 : S_TEXT/UTF8
Codec ID/Info                            : UTF-8 Plain Text
Duration                                 : 33 min 8 s
Bit rate                                 : 85 b/s
Frame rate                               : 0.282 FPS
Count of elements                        : 561
Stream size                              : 20.7 KiB (0%)
Language                                 : Italian
Default                                  : No
Forced                                   : No

Text #22
ID                                       : 24
Format                                   : UTF-8
Codec ID                                 : S_TEXT/UTF8
Codec ID/Info                            : UTF-8 Plain Text
Duration                                 : 33 min 5 s
Bit rate                                 : 71 b/s
Frame rate                               : 0.277 FPS
Count of elements                        : 549
Stream size                              : 17.2 KiB (0%)
Language                                 : Japanese
Default                                  : No
Forced                                   : No

Text #23
ID                                       : 25
Format                                   : UTF-8
Codec ID                                 : S_TEXT/UTF8
Codec ID/Info                            : UTF-8 Plain Text
Duration                                 : 33 min 0 s
Bit rate                                 : 92 b/s
Frame rate                               : 0.287 FPS
Count of elements                        : 568
Stream size                              : 22.4 KiB (0%)
Language                                 : Korean
Default                                  : No
Forced                                   : No

Text #24
ID                                       : 26
Format                                   : UTF-8
Codec ID                                 : S_TEXT/UTF8
Codec ID/Info                            : UTF-8 Plain Text
Duration                                 : 33 min 0 s
Bit rate                                 : 88 b/s
Frame rate                               : 0.286 FPS
Count of elements                        : 567
Stream size                              : 21.3 KiB (0%)
Language                                 : Lithuanian
Default                                  : No
Forced                                   : No

Text #25
ID                                       : 27
Format                                   : UTF-8
Codec ID                                 : S_TEXT/UTF8
Codec ID/Info                            : UTF-8 Plain Text
Duration                                 : 33 min 0 s
Bit rate                                 : 87 b/s
Frame rate                               : 0.282 FPS
Count of elements                        : 559
Stream size                              : 21.2 KiB (0%)
Language                                 : Latvian
Default                                  : No
Forced                                   : No

Text #26
ID                                       : 28
Format                                   : UTF-8
Codec ID                                 : S_TEXT/UTF8
Codec ID/Info                            : UTF-8 Plain Text
Duration                                 : 33 min 0 s
Bit rate                                 : 86 b/s
Frame rate                               : 0.286 FPS
Count of elements                        : 567
Stream size                              : 21.0 KiB (0%)
Language                                 : Malay
Default                                  : No
Forced                                   : No

Text #27
ID                                       : 29
Format                                   : UTF-8
Codec ID                                 : S_TEXT/UTF8
Codec ID/Info                            : UTF-8 Plain Text
Duration                                 : 33 min 0 s
Bit rate                                 : 74 b/s
Frame rate                               : 0.226 FPS
Count of elements                        : 448
Stream size                              : 18.0 KiB (0%)
Language                                 : Dutch
Default                                  : No
Forced                                   : No

Text #28
ID                                       : 30
Format                                   : UTF-8
Codec ID                                 : S_TEXT/UTF8
Codec ID/Info                            : UTF-8 Plain Text
Duration                                 : 33 min 0 s
Bit rate                                 : 78 b/s
Frame rate                               : 0.227 FPS
Count of elements                        : 449
Stream size                              : 19.0 KiB (0%)
Language                                 : Norwegian
Default                                  : No
Forced                                   : No

Text #29
ID                                       : 31
Format                                   : UTF-8
Codec ID                                 : S_TEXT/UTF8
Codec ID/Info                            : UTF-8 Plain Text
Duration                                 : 33 min 0 s
Bit rate                                 : 74 b/s
Frame rate                               : 0.263 FPS
Count of elements                        : 520
Stream size                              : 18.0 KiB (0%)
Language                                 : Polish
Default                                  : No
Forced                                   : No

Text #30
ID                                       : 32
Format                                   : UTF-8
Codec ID                                 : S_TEXT/UTF8
Codec ID/Info                            : UTF-8 Plain Text
Duration                                 : 33 min 0 s
Bit rate                                 : 84 b/s
Frame rate                               : 0.285 FPS
Count of elements                        : 564
Stream size                              : 20.5 KiB (0%)
Language                                 : Portuguese
Default                                  : No
Forced                                   : No

Text #31
ID                                       : 33
Format                                   : UTF-8
Codec ID                                 : S_TEXT/UTF8
Codec ID/Info                            : UTF-8 Plain Text
Duration                                 : 33 min 0 s
Bit rate                                 : 77 b/s
Frame rate                               : 0.273 FPS
Count of elements                        : 540
Stream size                              : 18.8 KiB (0%)
Title                                    : Brazilian
Language                                 : Portuguese (BR)
Default                                  : No
Forced                                   : No

Text #32
ID                                       : 34
Format                                   : UTF-8
Codec ID                                 : S_TEXT/UTF8
Codec ID/Info                            : UTF-8 Plain Text
Duration                                 : 33 min 0 s
Bit rate                                 : 127 b/s
Frame rate                               : 0.284 FPS
Count of elements                        : 563
Stream size                              : 30.9 KiB (0%)
Language                                 : Russian
Default                                  : No
Forced                                   : No

Text #33
ID                                       : 35
Format                                   : UTF-8
Codec ID                                 : S_TEXT/UTF8
Codec ID/Info                            : UTF-8 Plain Text
Duration                                 : 33 min 0 s
Bit rate                                 : 80 b/s
Frame rate                               : 0.286 FPS
Count of elements                        : 567
Stream size                              : 19.5 KiB (0%)
Language                                 : Slovak
Default                                  : No
Forced                                   : No

Text #34
ID                                       : 36
Format                                   : UTF-8
Codec ID                                 : S_TEXT/UTF8
Codec ID/Info                            : UTF-8 Plain Text
Duration                                 : 33 min 0 s
Bit rate                                 : 67 b/s
Frame rate                               : 0.253 FPS
Count of elements                        : 502
Stream size                              : 16.4 KiB (0%)
Language                                 : Slovenian
Default                                  : No
Forced                                   : No

Text #35
ID                                       : 37
Format                                   : UTF-8
Codec ID                                 : S_TEXT/UTF8
Codec ID/Info                            : UTF-8 Plain Text
Duration                                 : 33 min 0 s
Bit rate                                 : 81 b/s
Frame rate                               : 0.285 FPS
Count of elements                        : 564
Stream size                              : 19.7 KiB (0%)
Language                                 : Swedish
Default                                  : No
Forced                                   : No

Text #36
ID                                       : 38
Format                                   : UTF-8
Codec ID                                 : S_TEXT/UTF8
Codec ID/Info                            : UTF-8 Plain Text
Duration                                 : 33 min 0 s
Bit rate                                 : 268 b/s
Frame rate                               : 0.286 FPS
Count of elements                        : 567
Stream size                              : 64.8 KiB (0%)
Language                                 : Tamil
Default                                  : No
Forced                                   : No

Text #37
ID                                       : 39
Format                                   : UTF-8
Codec ID                                 : S_TEXT/UTF8
Codec ID/Info                            : UTF-8 Plain Text
Duration                                 : 33 min 0 s
Bit rate                                 : 243 b/s
Frame rate                               : 0.286 FPS
Count of elements                        : 567
Stream size                              : 58.9 KiB (0%)
Language                                 : Telugu
Default                                  : No
Forced                                   : No

Text #38
ID                                       : 40
Format                                   : UTF-8
Codec ID                                 : S_TEXT/UTF8
Codec ID/Info                            : UTF-8 Plain Text
Duration                                 : 33 min 0 s
Bit rate                                 : 177 b/s
Frame rate                               : 0.286 FPS
Count of elements                        : 567
Stream size                              : 42.8 KiB (0%)
Language                                 : Thai
Default                                  : No
Forced                                   : No

Text #39
ID                                       : 41
Format                                   : UTF-8
Codec ID                                 : S_TEXT/UTF8
Codec ID/Info                            : UTF-8 Plain Text
Duration                                 : 33 min 0 s
Bit rate                                 : 83 b/s
Frame rate                               : 0.279 FPS
Count of elements                        : 553
Stream size                              : 20.3 KiB (0%)
Language                                 : Turkish
Default                                  : No
Forced                                   : No

Text #40
ID                                       : 42
Format                                   : UTF-8
Codec ID                                 : S_TEXT/UTF8
Codec ID/Info                            : UTF-8 Plain Text
Duration                                 : 33 min 0 s
Bit rate                                 : 126 b/s
Frame rate                               : 0.287 FPS
Count of elements                        : 568
Stream size                              : 30.6 KiB (0%)
Language                                 : Ukrainian
Default                                  : No
Forced                                   : No

Text #41
ID                                       : 43
Format                                   : UTF-8
Codec ID                                 : S_TEXT/UTF8
Codec ID/Info                            : UTF-8 Plain Text
Duration                                 : 33 min 0 s
Bit rate                                 : 106 b/s
Frame rate                               : 0.287 FPS
Count of elements                        : 568
Stream size                              : 25.7 KiB (0%)
Language                                 : Vietnamese
Default                                  : No
Forced                                   : No

Text #42
ID                                       : 44
Format                                   : UTF-8
Codec ID                                 : S_TEXT/UTF8
Codec ID/Info                            : UTF-8 Plain Text
Duration                                 : 33 min 0 s
Bit rate                                 : 66 b/s
Frame rate                               : 0.287 FPS
Count of elements                        : 568
Stream size                              : 16.0 KiB (0%)
Title                                    : Traditional
Language                                 : Cantonese (Hant)
Default                                  : No
Forced                                   : No

Menu
00:00:00.000                             : en:Studio Logo
00:00:08.843                             : en:Recap
00:00:41.029                             : en:Scene 01
00:02:49.445                             : en:Intro
00:03:05.404                             : en:Scene 02
00:31:47.083                             : en:Credits



Download
File Container: MKV
Video/Audio Codec: H264 (HIGH) EAC3
Video Resolution: 1920x872

1 Response to "[RR/NF] The Big Door Prize S02E03 Power and Energy 1080p ATVP WEB-DL DDP5 1 Atmos H 264-FLUX (2.5GB)"
04/24/24
06:45:36
ReadyPlayerOne

Thank You

Please Login to post a comment.
If you don't have any account, please Register.
  • Subscribe my Feeds
  • Facebook
Encoding Queue:  x264  x265

Latest Episodes

Popular Movies and TV Shows

  • Devil in the Flesh
  • The Simpsons
  • Big City Greens
  • Baby Driver
  • Golden Kamuy
  • Tsukimichi: Moonlit Fantasy
  • Tracker
  • The Equalizer
  • CSI: Vegas
  • Challengers
  • Triple Frontier
  • Wild Guitar
  • The Sympathizer
  • Krapopolis
  • Bob's Burgers
  • A Walk Among the Tombstones
  • The Baby Daddy
  • Phil Tippett: Mad Dreams and Monsters
  • Young Sheldon
  • Beacon 23
  • The Great North
  • Dawn of the Planet of the Apes
  • Exhuma
  • Everything Puppies
  • S.W.A.T.

Recent Comments

  • Bud: Is the search engine down for everyone, or just me? It just says 'You're forbidden!' whenever I lo...
  • 23d1:

    not episode 4 it is episode 3

  • 23d1:

    not episode 4 it is episode 3

  • 23d1:

    not episode 4 it is episode 3

  • 23d1:

    not episode 4 it is episode 3

  • aaroz88:

    Trimas!!

  • mptoo: I don't often ask this, infact this would be the first time, but I don't suppose there is any chance...
  • Cinque_Persson:

    btw:
    quote /quote
    is broken

  • gabrielsyme:

    Sorry but where is the clicknupload link?

  • mike1204:

    Is this episode doomed??? The RMX avi version is only 12 minutes long!!!

  • waanaabe:

    Could PUSHING DAISES kindly be upoaded to CU? THANKS!

Archives