Sign Up   |   Sign In  
My Adventures with SupermanGypsy Rose: Life After Lock UpCats in the MuseumChristmas Is CanceledThe Body StealersTheresa Caputo: Raising SpiritsMayor of KingstownInterview with the VampireHotel CocaineDaaaaaali!OctopussySatan's ChildrenLadies in BlackBilly the KidWalkerKung Fu HustleLicence to KillLook to the LightWWE NXTThe Loud HouseThe Bold and the BeautifulThere's Something About MaryVice News Presents: Mass Shooting AmericaInside Out 2The Daily Show

Announcements

05/15

2024

1

Comments

The Big Door Prize S02E06 Back in the Saddle 1080p ATVP WEB-DL DDP5 1 Atmos H 264-FLUX
[RR/NF]
Size: 2.5GB mkv H264 (HIGH) / EAC3  HD  1920x872

The Big Door Prize
File Information
[img]http://lookpic.com/cdn/i2/t/0515202403312350-1.jpg[/img]
[img]http://lookpic.com/cdn/i2/t/0515202403312350-2.jpg[/img]
[img]http://lookpic.com/cdn/i2/t/0515202403312350-3.jpg[/img]

General
Unique ID                                : 234890793170049940336826281939408416915 (0xB0B6523BA6BC705CA986AB5712827093)
Complete name                            : The Big Door Prize S02E06 Back in the Saddle 1080p ATVP WEB-DL DDP5 1 Atmos H 264-FLUX.mkv
Format                                   : Matroska
Format version                           : Version 4
File size                                : 2.45 GiB
Duration                                 : 32 min 32 s
Overall bit rate                         : 10.8 Mb/s
Frame rate                               : 23.976 FPS
Writing application                      : mkvmerge v79.0 ('Funeral Pyres') 64-bit
Writing library                          : libebml v1.4.4 + libmatroska v1.7.1

Video
ID                                       : 1
Format                                   : AVC
Format/Info                              : Advanced Video Codec
Format profile                           : High@L4
Format settings                          : CABAC / 4 Ref Frames
Format settings, CABAC                   : Yes
Format settings, Reference frames        : 4 frames
Codec ID                                 : V_MPEG4/ISO/AVC
Duration                                 : 32 min 32 s
Bit rate                                 : 10.0 Mb/s
Width                                    : 1 920 pixels
Height                                   : 872 pixels
Display aspect ratio                     : 2.2:1
Frame rate mode                          : Constant
Frame rate                               : 23.976 (24000/1001) FPS
Color space                              : YUV
Chroma subsampling                       : 4:2:0
Bit depth                                : 8 bits
Scan type                                : Progressive
Bits/(Pixel*Frame)                       : 0.249
Stream size                              : 2.28 GiB (93%)
Language                                 : English
Default                                  : Yes
Forced                                   : No
Color range                              : Limited
Color primaries                          : BT.709
Transfer characteristics                 : BT.709
Matrix coefficients                      : BT.709

Audio
ID                                       : 2
Format                                   : E-AC-3 JOC
Format/Info                              : Enhanced AC-3 with Joint Object Coding
Commercial name                          : Dolby Digital Plus with Dolby Atmos
Codec ID                                 : A_EAC3
Duration                                 : 32 min 32 s
Bit rate mode                            : Constant
Bit rate                                 : 768 kb/s
Channel(s)                               : 6 channels
Channel layout                           : L R C LFE Ls Rs
Sampling rate                            : 48.0 kHz
Frame rate                               : 31.250 FPS (1536 SPF)
Compression mode                         : Lossy
Stream size                              : 179 MiB (7%)
Language                                 : English
Service kind                             : Complete Main
Default                                  : Yes
Forced                                   : No
Complexity index                         : 16
Number of dynamic objects                : 15
Bed channel count                        : 1 channel
Bed channel configuration                : LFE

Text #1
ID                                       : 3
Format                                   : UTF-8
Codec ID                                 : S_TEXT/UTF8
Codec ID/Info                            : UTF-8 Plain Text
Duration                                 : 29 min 46 s
Bit rate                                 : 98 b/s
Frame rate                               : 0.309 FPS
Count of elements                        : 552
Stream size                              : 21.5 KiB (0%)
Language                                 : English
Default                                  : No
Forced                                   : No

Text #2
ID                                       : 4
Format                                   : UTF-8
Codec ID                                 : S_TEXT/UTF8
Codec ID/Info                            : UTF-8 Plain Text
Duration                                 : 30 min 27 s
Bit rate                                 : 106 b/s
Frame rate                               : 0.322 FPS
Count of elements                        : 589
Stream size                              : 23.8 KiB (0%)
Title                                    : SDH
Language                                 : English
Default                                  : No
Forced                                   : No

Text #3
ID                                       : 5
Format                                   : UTF-8
Codec ID                                 : S_TEXT/UTF8
Codec ID/Info                            : UTF-8 Plain Text
Duration                                 : 32 min 14 s
Bit rate                                 : 136 b/s
Frame rate                               : 0.291 FPS
Count of elements                        : 562
Stream size                              : 32.2 KiB (0%)
Language                                 : Arabic
Default                                  : No
Forced                                   : No

Text #4
ID                                       : 6
Format                                   : UTF-8
Codec ID                                 : S_TEXT/UTF8
Codec ID/Info                            : UTF-8 Plain Text
Duration                                 : 32 min 14 s
Bit rate                                 : 109 b/s
Frame rate                               : 0.210 FPS
Count of elements                        : 406
Stream size                              : 25.9 KiB (0%)
Language                                 : Bulgarian
Default                                  : No
Forced                                   : No

Text #5
ID                                       : 7
Format                                   : UTF-8
Codec ID                                 : S_TEXT/UTF8
Codec ID/Info                            : UTF-8 Plain Text
Duration                                 : 32 min 14 s
Bit rate                                 : 76 b/s
Frame rate                               : 0.291 FPS
Count of elements                        : 562
Stream size                              : 18.1 KiB (0%)
Title                                    : Simplified
Language                                 : Chinese (Simplified)
Default                                  : No
Forced                                   : No

Text #6
ID                                       : 8
Format                                   : UTF-8
Codec ID                                 : S_TEXT/UTF8
Codec ID/Info                            : UTF-8 Plain Text
Duration                                 : 32 min 14 s
Bit rate                                 : 77 b/s
Frame rate                               : 0.291 FPS
Count of elements                        : 563
Stream size                              : 18.3 KiB (0%)
Title                                    : Traditional
Language                                 : Chinese (Traditional)
Default                                  : No
Forced                                   : No

Text #7
ID                                       : 9
Format                                   : UTF-8
Codec ID                                 : S_TEXT/UTF8
Codec ID/Info                            : UTF-8 Plain Text
Duration                                 : 32 min 14 s
Bit rate                                 : 76 b/s
Frame rate                               : 0.257 FPS
Count of elements                        : 497
Stream size                              : 18.0 KiB (0%)
Language                                 : Czech
Default                                  : No
Forced                                   : No

Text #8
ID                                       : 10
Format                                   : UTF-8
Codec ID                                 : S_TEXT/UTF8
Codec ID/Info                            : UTF-8 Plain Text
Duration                                 : 32 min 14 s
Bit rate                                 : 75 b/s
Frame rate                               : 0.222 FPS
Count of elements                        : 429
Stream size                              : 17.7 KiB (0%)
Language                                 : Danish
Default                                  : No
Forced                                   : No

Text #9
ID                                       : 11
Format                                   : UTF-8
Codec ID                                 : S_TEXT/UTF8
Codec ID/Info                            : UTF-8 Plain Text
Duration                                 : 32 min 22 s
Bit rate                                 : 95 b/s
Frame rate                               : 0.282 FPS
Count of elements                        : 548
Stream size                              : 22.6 KiB (0%)
Language                                 : German
Default                                  : No
Forced                                   : No

Text #10
ID                                       : 12
Format                                   : UTF-8
Codec ID                                 : S_TEXT/UTF8
Codec ID/Info                            : UTF-8 Plain Text
Duration                                 : 32 min 14 s
Bit rate                                 : 136 b/s
Frame rate                               : 0.274 FPS
Count of elements                        : 530
Stream size                              : 32.1 KiB (0%)
Language                                 : Greek
Default                                  : No
Forced                                   : No

Text #11
ID                                       : 13
Format                                   : UTF-8
Codec ID                                 : S_TEXT/UTF8
Codec ID/Info                            : UTF-8 Plain Text
Duration                                 : 32 min 14 s
Bit rate                                 : 88 b/s
Frame rate                               : 0.291 FPS
Count of elements                        : 562
Stream size                              : 21.0 KiB (0%)
Title                                    : Latin American
Language                                 : Spanish (Latin America)
Default                                  : No
Forced                                   : No

Text #12
ID                                       : 14
Format                                   : UTF-8
Codec ID                                 : S_TEXT/UTF8
Codec ID/Info                            : UTF-8 Plain Text
Duration                                 : 32 min 22 s
Bit rate                                 : 87 b/s
Frame rate                               : 0.281 FPS
Count of elements                        : 545
Stream size                              : 20.7 KiB (0%)
Language                                 : Spanish (ES)
Default                                  : No
Forced                                   : No

Text #13
ID                                       : 15
Format                                   : UTF-8
Codec ID                                 : S_TEXT/UTF8
Codec ID/Info                            : UTF-8 Plain Text
Duration                                 : 32 min 14 s
Bit rate                                 : 80 b/s
Frame rate                               : 0.273 FPS
Count of elements                        : 528
Stream size                              : 19.1 KiB (0%)
Language                                 : Estonian
Default                                  : No
Forced                                   : No

Text #14
ID                                       : 16
Format                                   : UTF-8
Codec ID                                 : S_TEXT/UTF8
Codec ID/Info                            : UTF-8 Plain Text
Duration                                 : 32 min 14 s
Bit rate                                 : 69 b/s
Frame rate                               : 0.242 FPS
Count of elements                        : 469
Stream size                              : 16.4 KiB (0%)
Language                                 : Finnish
Default                                  : No
Forced                                   : No

Text #15
ID                                       : 17
Format                                   : UTF-8
Codec ID                                 : S_TEXT/UTF8
Codec ID/Info                            : UTF-8 Plain Text
Duration                                 : 32 min 10 s
Bit rate                                 : 76 b/s
Frame rate                               : 0.291 FPS
Count of elements                        : 561
Stream size                              : 18.0 KiB (0%)
Title                                    : Canadian
Language                                 : French (CA)
Default                                  : No
Forced                                   : No

Text #16
ID                                       : 18
Format                                   : UTF-8
Codec ID                                 : S_TEXT/UTF8
Codec ID/Info                            : UTF-8 Plain Text
Duration                                 : 32 min 10 s
Bit rate                                 : 76 b/s
Frame rate                               : 0.290 FPS
Count of elements                        : 560
Stream size                              : 17.9 KiB (0%)
Language                                 : French (FR)
Default                                  : No
Forced                                   : No

Text #17
ID                                       : 19
Format                                   : UTF-8
Codec ID                                 : S_TEXT/UTF8
Codec ID/Info                            : UTF-8 Plain Text
Duration                                 : 32 min 14 s
Bit rate                                 : 128 b/s
Frame rate                               : 0.291 FPS
Count of elements                        : 562
Stream size                              : 30.3 KiB (0%)
Language                                 : Hebrew
Default                                  : No
Forced                                   : No

Text #18
ID                                       : 20
Format                                   : UTF-8
Codec ID                                 : S_TEXT/UTF8
Codec ID/Info                            : UTF-8 Plain Text
Duration                                 : 32 min 14 s
Bit rate                                 : 246 b/s
Frame rate                               : 0.291 FPS
Count of elements                        : 563
Stream size                              : 58.2 KiB (0%)
Language                                 : Hindi
Default                                  : No
Forced                                   : No

Text #19
ID                                       : 21
Format                                   : UTF-8
Codec ID                                 : S_TEXT/UTF8
Codec ID/Info                            : UTF-8 Plain Text
Duration                                 : 32 min 14 s
Bit rate                                 : 83 b/s
Frame rate                               : 0.286 FPS
Count of elements                        : 554
Stream size                              : 19.8 KiB (0%)
Language                                 : Hungarian
Default                                  : No
Forced                                   : No

Text #20
ID                                       : 22
Format                                   : UTF-8
Codec ID                                 : S_TEXT/UTF8
Codec ID/Info                            : UTF-8 Plain Text
Duration                                 : 32 min 14 s
Bit rate                                 : 87 b/s
Frame rate                               : 0.289 FPS
Count of elements                        : 559
Stream size                              : 20.6 KiB (0%)
Language                                 : Indonesian
Default                                  : No
Forced                                   : No

Text #21
ID                                       : 23
Format                                   : UTF-8
Codec ID                                 : S_TEXT/UTF8
Codec ID/Info                            : UTF-8 Plain Text
Duration                                 : 32 min 22 s
Bit rate                                 : 79 b/s
Frame rate                               : 0.283 FPS
Count of elements                        : 549
Stream size                              : 18.9 KiB (0%)
Language                                 : Italian
Default                                  : No
Forced                                   : No

Text #22
ID                                       : 24
Format                                   : UTF-8
Codec ID                                 : S_TEXT/UTF8
Codec ID/Info                            : UTF-8 Plain Text
Duration                                 : 32 min 19 s
Bit rate                                 : 70 b/s
Frame rate                               : 0.279 FPS
Count of elements                        : 542
Stream size                              : 16.6 KiB (0%)
Language                                 : Japanese
Default                                  : No
Forced                                   : No

Text #23
ID                                       : 25
Format                                   : UTF-8
Codec ID                                 : S_TEXT/UTF8
Codec ID/Info                            : UTF-8 Plain Text
Duration                                 : 32 min 14 s
Bit rate                                 : 96 b/s
Frame rate                               : 0.291 FPS
Count of elements                        : 563
Stream size                              : 22.7 KiB (0%)
Language                                 : Korean
Default                                  : No
Forced                                   : No

Text #24
ID                                       : 26
Format                                   : UTF-8
Codec ID                                 : S_TEXT/UTF8
Codec ID/Info                            : UTF-8 Plain Text
Duration                                 : 32 min 14 s
Bit rate                                 : 89 b/s
Frame rate                               : 0.290 FPS
Count of elements                        : 561
Stream size                              : 21.1 KiB (0%)
Language                                 : Lithuanian
Default                                  : No
Forced                                   : No

Text #25
ID                                       : 27
Format                                   : UTF-8
Codec ID                                 : S_TEXT/UTF8
Codec ID/Info                            : UTF-8 Plain Text
Duration                                 : 32 min 14 s
Bit rate                                 : 88 b/s
Frame rate                               : 0.286 FPS
Count of elements                        : 554
Stream size                              : 20.9 KiB (0%)
Language                                 : Latvian
Default                                  : No
Forced                                   : No

Text #26
ID                                       : 28
Format                                   : UTF-8
Codec ID                                 : S_TEXT/UTF8
Codec ID/Info                            : UTF-8 Plain Text
Duration                                 : 32 min 14 s
Bit rate                                 : 89 b/s
Frame rate                               : 0.288 FPS
Count of elements                        : 558
Stream size                              : 21.0 KiB (0%)
Language                                 : Malay
Default                                  : No
Forced                                   : No

Text #27
ID                                       : 29
Format                                   : UTF-8
Codec ID                                 : S_TEXT/UTF8
Codec ID/Info                            : UTF-8 Plain Text
Duration                                 : 32 min 14 s
Bit rate                                 : 74 b/s
Frame rate                               : 0.229 FPS
Count of elements                        : 443
Stream size                              : 17.7 KiB (0%)
Language                                 : Dutch
Default                                  : No
Forced                                   : No

Text #28
ID                                       : 30
Format                                   : UTF-8
Codec ID                                 : S_TEXT/UTF8
Codec ID/Info                            : UTF-8 Plain Text
Duration                                 : 32 min 14 s
Bit rate                                 : 79 b/s
Frame rate                               : 0.223 FPS
Count of elements                        : 431
Stream size                              : 18.8 KiB (0%)
Language                                 : Norwegian
Default                                  : No
Forced                                   : No

Text #29
ID                                       : 31
Format                                   : UTF-8
Codec ID                                 : S_TEXT/UTF8
Codec ID/Info                            : UTF-8 Plain Text
Duration                                 : 32 min 14 s
Bit rate                                 : 73 b/s
Frame rate                               : 0.258 FPS
Count of elements                        : 499
Stream size                              : 17.3 KiB (0%)
Language                                 : Polish
Default                                  : No
Forced                                   : No

Text #30
ID                                       : 32
Format                                   : UTF-8
Codec ID                                 : S_TEXT/UTF8
Codec ID/Info                            : UTF-8 Plain Text
Duration                                 : 32 min 14 s
Bit rate                                 : 85 b/s
Frame rate                               : 0.288 FPS
Count of elements                        : 557
Stream size                              : 20.3 KiB (0%)
Language                                 : Portuguese
Default                                  : No
Forced                                   : No

Text #31
ID                                       : 33
Format                                   : UTF-8
Codec ID                                 : S_TEXT/UTF8
Codec ID/Info                            : UTF-8 Plain Text
Duration                                 : 32 min 14 s
Bit rate                                 : 77 b/s
Frame rate                               : 0.273 FPS
Count of elements                        : 529
Stream size                              : 18.4 KiB (0%)
Title                                    : Brazilian
Language                                 : Portuguese (BR)
Default                                  : No
Forced                                   : No

Text #32
ID                                       : 34
Format                                   : UTF-8
Codec ID                                 : S_TEXT/UTF8
Codec ID/Info                            : UTF-8 Plain Text
Duration                                 : 32 min 14 s
Bit rate                                 : 127 b/s
Frame rate                               : 0.280 FPS
Count of elements                        : 542
Stream size                              : 30.1 KiB (0%)
Language                                 : Russian
Default                                  : No
Forced                                   : No

Text #33
ID                                       : 35
Format                                   : UTF-8
Codec ID                                 : S_TEXT/UTF8
Codec ID/Info                            : UTF-8 Plain Text
Duration                                 : 32 min 14 s
Bit rate                                 : 80 b/s
Frame rate                               : 0.288 FPS
Count of elements                        : 558
Stream size                              : 19.1 KiB (0%)
Language                                 : Slovak
Default                                  : No
Forced                                   : No

Text #34
ID                                       : 36
Format                                   : UTF-8
Codec ID                                 : S_TEXT/UTF8
Codec ID/Info                            : UTF-8 Plain Text
Duration                                 : 32 min 14 s
Bit rate                                 : 68 b/s
Frame rate                               : 0.255 FPS
Count of elements                        : 494
Stream size                              : 16.3 KiB (0%)
Language                                 : Slovenian
Default                                  : No
Forced                                   : No

Text #35
ID                                       : 37
Format                                   : UTF-8
Codec ID                                 : S_TEXT/UTF8
Codec ID/Info                            : UTF-8 Plain Text
Duration                                 : 32 min 14 s
Bit rate                                 : 83 b/s
Frame rate                               : 0.287 FPS
Count of elements                        : 555
Stream size                              : 19.8 KiB (0%)
Language                                 : Swedish
Default                                  : No
Forced                                   : No

Text #36
ID                                       : 38
Format                                   : UTF-8
Codec ID                                 : S_TEXT/UTF8
Codec ID/Info                            : UTF-8 Plain Text
Duration                                 : 32 min 14 s
Bit rate                                 : 291 b/s
Frame rate                               : 0.291 FPS
Count of elements                        : 562
Stream size                              : 68.9 KiB (0%)
Language                                 : Tamil
Default                                  : No
Forced                                   : No

Text #37
ID                                       : 39
Format                                   : UTF-8
Codec ID                                 : S_TEXT/UTF8
Codec ID/Info                            : UTF-8 Plain Text
Duration                                 : 32 min 14 s
Bit rate                                 : 255 b/s
Frame rate                               : 0.290 FPS
Count of elements                        : 561
Stream size                              : 60.4 KiB (0%)
Language                                 : Telugu
Default                                  : No
Forced                                   : No

Text #38
ID                                       : 40
Format                                   : UTF-8
Codec ID                                 : S_TEXT/UTF8
Codec ID/Info                            : UTF-8 Plain Text
Duration                                 : 32 min 14 s
Bit rate                                 : 174 b/s
Frame rate                               : 0.291 FPS
Count of elements                        : 562
Stream size                              : 41.2 KiB (0%)
Language                                 : Thai
Default                                  : No
Forced                                   : No

Text #39
ID                                       : 41
Format                                   : UTF-8
Codec ID                                 : S_TEXT/UTF8
Codec ID/Info                            : UTF-8 Plain Text
Duration                                 : 32 min 14 s
Bit rate                                 : 82 b/s
Frame rate                               : 0.283 FPS
Count of elements                        : 547
Stream size                              : 19.6 KiB (0%)
Language                                 : Turkish
Default                                  : No
Forced                                   : No

Text #40
ID                                       : 42
Format                                   : UTF-8
Codec ID                                 : S_TEXT/UTF8
Codec ID/Info                            : UTF-8 Plain Text
Duration                                 : 32 min 14 s
Bit rate                                 : 127 b/s
Frame rate                               : 0.291 FPS
Count of elements                        : 563
Stream size                              : 30.0 KiB (0%)
Language                                 : Ukrainian
Default                                  : No
Forced                                   : No

Text #41
ID                                       : 43
Format                                   : UTF-8
Codec ID                                 : S_TEXT/UTF8
Codec ID/Info                            : UTF-8 Plain Text
Duration                                 : 32 min 14 s
Bit rate                                 : 115 b/s
Frame rate                               : 0.290 FPS
Count of elements                        : 561
Stream size                              : 27.4 KiB (0%)
Language                                 : Vietnamese
Default                                  : No
Forced                                   : No

Text #42
ID                                       : 44
Format                                   : UTF-8
Codec ID                                 : S_TEXT/UTF8
Codec ID/Info                            : UTF-8 Plain Text
Duration                                 : 32 min 14 s
Bit rate                                 : 67 b/s
Frame rate                               : 0.291 FPS
Count of elements                        : 562
Stream size                              : 16.0 KiB (0%)
Title                                    : Traditional
Language                                 : Cantonese (Hant)
Default                                  : No
Forced                                   : No

Menu
00:00:00.000                             : en:Studio Logo
00:00:08.843                             : en:Recap
00:00:40.916                             : en:Scene 01
00:03:14.999                             : en:Intro
00:03:30.957                             : en:Scene 02
00:31:59.625                             : en:Credits



Download
File Container: MKV
Video/Audio Codec: H264 (HIGH) EAC3
Video Resolution: 1920x872

1 Response to "[RR/NF] The Big Door Prize S02E06 Back in the Saddle 1080p ATVP WEB-DL DDP5 1 Atmos H 264-FLUX (2.5GB)"
05/15/24
04:58:05
ReadyPlayerOne

Thank you!

Please Login to post a comment.
If you don't have any account, please Register.
  • Subscribe my Feeds
  • Facebook
Encoding Queue:  x264  x265

Latest Episodes

Popular Movies and TV Shows

  • My Adventures with Superman
  • Gypsy Rose: Life After Lock Up
  • Cats in the Museum
  • Christmas Is Canceled
  • The Body Stealers
  • Theresa Caputo: Raising Spirits
  • Mayor of Kingstown
  • Interview with the Vampire
  • Hotel Cocaine
  • Daaaaaali!
  • Octopussy
  • Satan's Children
  • Ladies in Black
  • Billy the Kid
  • Walker
  • Kung Fu Hustle
  • Licence to Kill
  • Look to the Light
  • WWE NXT
  • The Loud House
  • The Bold and the Beautiful
  • There's Something About Mary
  • Vice News Presents: Mass Shooting America
  • Inside Out 2
  • The Daily Show

Recent Comments

Archives