Sign Up   |   Sign In  
Criminal MindsThe ChiI Saw the TV GlowSpecies IIKim's VideoCaptivating the KingThe Loud HousePower Book II: GhostThe BoysThe GrabUltraman: RisingMax Dugan ReturnsWWE NXTThe Bold and the BeautifulWalkerHannah Einbinder: Everything Must GoExhumaAlienoid: The Return to the FutureEvilWWE RawSistasBratsMower MinionsNotas sobre un veranoThe Daily Show

Announcements

05/29

2024

2

Comments

The Big Door Prize S02E08 Our Town 720p ATVP WEB-DL DDP5 1 H 264-NTb
[RR/NF/CU]
Size: 855MB mkv H264 (HIGH) / EAC3  HD  1422x646

The Big Door Prize
File Information
[img]http://lookpic.com/cdn/i2/t/0529202403180840-1.jpg[/img]
[img]http://lookpic.com/cdn/i2/t/0529202403180840-2.jpg[/img]
[img]http://lookpic.com/cdn/i2/t/0529202403180840-3.jpg[/img]

General
Unique ID                                : 153747078586991976941047026448042923271 (0x73AA9C396D728213C965327806399507)
Complete name                            : The.Big.Door.Prize.S02E08.Our.Town.720p.ATVP.WEB-DL.DDP5.1.H.264-NTb.mkv
Format                                   : Matroska
Format version                           : Version 4
File size                                : 855 MiB
Duration                                 : 33 min 17 s
Overall bit rate                         : 3 591 kb/s
Frame rate                               : 23.976 FPS
Writing application                      : mkvmerge v84.0 ('Sleeper') 64-bit
Writing library                          : libebml v1.4.5 + libmatroska v1.7.1

Video
ID                                       : 1
Format                                   : AVC
Format/Info                              : Advanced Video Codec
Format profile                           : High@L3.2
Format settings                          : CABAC / 5 Ref Frames
Format settings, CABAC                   : Yes
Format settings, Reference frames        : 5 frames
Codec ID                                 : V_MPEG4/ISO/AVC
Duration                                 : 33 min 17 s
Bit rate                                 : 2 814 kb/s
Width                                    : 1 422 pixels
Height                                   : 646 pixels
Display aspect ratio                     : 2.2:1
Frame rate mode                          : Constant
Frame rate                               : 23.976 (24000/1001) FPS
Color space                              : YUV
Chroma subsampling                       : 4:2:0
Bit depth                                : 8 bits
Scan type                                : Progressive
Bits/(Pixel*Frame)                       : 0.128
Stream size                              : 670 MiB (78%)
Default                                  : Yes
Forced                                   : No
Color range                              : Limited
Color primaries                          : BT.709
Transfer characteristics                 : BT.709
Matrix coefficients                      : BT.709

Audio
ID                                       : 2
Format                                   : E-AC-3 JOC
Format/Info                              : Enhanced AC-3 with Joint Object Coding
Commercial name                          : Dolby Digital Plus with Dolby Atmos
Codec ID                                 : A_EAC3
Duration                                 : 33 min 17 s
Bit rate mode                            : Constant
Bit rate                                 : 768 kb/s
Channel(s)                               : 6 channels
Channel layout                           : L R C LFE Ls Rs
Sampling rate                            : 48.0 kHz
Frame rate                               : 31.250 FPS (1536 SPF)
Compression mode                         : Lossy
Stream size                              : 183 MiB (21%)
Language                                 : English
Service kind                             : Complete Main
Default                                  : Yes
Forced                                   : No
Complexity index                         : 16
Number of dynamic objects                : 15
Bed channel count                        : 1 channel
Bed channel configuration                : LFE

Text #1
ID                                       : 3
Format                                   : UTF-8
Codec ID                                 : S_TEXT/UTF8
Codec ID/Info                            : UTF-8 Plain Text
Duration                                 : 31 min 15 s
Bit rate                                 : 82 b/s
Frame rate                               : 0.277 FPS
Count of elements                        : 519
Stream size                              : 19.0 KiB (0%)
Language                                 : English
Default                                  : No
Forced                                   : No

Text #2
ID                                       : 4
Format                                   : UTF-8
Codec ID                                 : S_TEXT/UTF8
Codec ID/Info                            : UTF-8 Plain Text
Duration                                 : 31 min 37 s
Bit rate                                 : 99 b/s
Frame rate                               : 0.327 FPS
Count of elements                        : 621
Stream size                              : 23.1 KiB (0%)
Title                                    : SDH
Language                                 : English
Default                                  : No
Forced                                   : No

Text #3
ID                                       : 5
Format                                   : UTF-8
Codec ID                                 : S_TEXT/UTF8
Codec ID/Info                            : UTF-8 Plain Text
Duration                                 : 32 min 57 s
Bit rate                                 : 109 b/s
Frame rate                               : 0.262 FPS
Count of elements                        : 519
Stream size                              : 26.6 KiB (0%)
Language                                 : Arabic
Default                                  : No
Forced                                   : No

Text #4
ID                                       : 6
Format                                   : UTF-8
Codec ID                                 : S_TEXT/UTF8
Codec ID/Info                            : UTF-8 Plain Text
Duration                                 : 32 min 57 s
Bit rate                                 : 96 b/s
Frame rate                               : 0.186 FPS
Count of elements                        : 368
Stream size                              : 23.2 KiB (0%)
Language                                 : Bulgarian
Default                                  : No
Forced                                   : No

Text #5
ID                                       : 7
Format                                   : UTF-8
Codec ID                                 : S_TEXT/UTF8
Codec ID/Info                            : UTF-8 Plain Text
Duration                                 : 32 min 57 s
Bit rate                                 : 65 b/s
Frame rate                               : 0.265 FPS
Count of elements                        : 525
Stream size                              : 15.8 KiB (0%)
Title                                    : Chinese (Simplified)
Language                                 : Mandarin (Hans)
Default                                  : No
Forced                                   : No

Text #6
ID                                       : 8
Format                                   : UTF-8
Codec ID                                 : S_TEXT/UTF8
Codec ID/Info                            : UTF-8 Plain Text
Duration                                 : 32 min 57 s
Bit rate                                 : 67 b/s
Frame rate                               : 0.266 FPS
Count of elements                        : 526
Stream size                              : 16.3 KiB (0%)
Title                                    : Chinese (Traditional)
Language                                 : Mandarin (Hant)
Default                                  : No
Forced                                   : No

Text #7
ID                                       : 9
Format                                   : UTF-8
Codec ID                                 : S_TEXT/UTF8
Codec ID/Info                            : UTF-8 Plain Text
Duration                                 : 32 min 57 s
Bit rate                                 : 68 b/s
Frame rate                               : 0.239 FPS
Count of elements                        : 473
Stream size                              : 16.4 KiB (0%)
Language                                 : Czech
Default                                  : No
Forced                                   : No

Text #8
ID                                       : 10
Format                                   : UTF-8
Codec ID                                 : S_TEXT/UTF8
Codec ID/Info                            : UTF-8 Plain Text
Duration                                 : 32 min 57 s
Bit rate                                 : 67 b/s
Frame rate                               : 0.205 FPS
Count of elements                        : 406
Stream size                              : 16.2 KiB (0%)
Language                                 : Danish
Default                                  : No
Forced                                   : No

Text #9
ID                                       : 11
Format                                   : UTF-8
Codec ID                                 : S_TEXT/UTF8
Codec ID/Info                            : UTF-8 Plain Text
Duration                                 : 33 min 5 s
Bit rate                                 : 85 b/s
Frame rate                               : 0.256 FPS
Count of elements                        : 508
Stream size                              : 20.8 KiB (0%)
Language                                 : German
Default                                  : No
Forced                                   : No

Text #10
ID                                       : 12
Format                                   : UTF-8
Codec ID                                 : S_TEXT/UTF8
Codec ID/Info                            : UTF-8 Plain Text
Duration                                 : 32 min 57 s
Bit rate                                 : 122 b/s
Frame rate                               : 0.249 FPS
Count of elements                        : 493
Stream size                              : 29.6 KiB (0%)
Language                                 : Greek
Default                                  : No
Forced                                   : No

Text #11
ID                                       : 13
Format                                   : UTF-8
Codec ID                                 : S_TEXT/UTF8
Codec ID/Info                            : UTF-8 Plain Text
Duration                                 : 32 min 57 s
Bit rate                                 : 76 b/s
Frame rate                               : 0.264 FPS
Count of elements                        : 523
Stream size                              : 18.5 KiB (0%)
Title                                    : Spanish (Latin America)
Language                                 : Spanish (Latin America)
Default                                  : No
Forced                                   : No

Text #12
ID                                       : 14
Format                                   : UTF-8
Codec ID                                 : S_TEXT/UTF8
Codec ID/Info                            : UTF-8 Plain Text
Duration                                 : 33 min 5 s
Bit rate                                 : 78 b/s
Frame rate                               : 0.264 FPS
Count of elements                        : 524
Stream size                              : 19.1 KiB (0%)
Title                                    : Spanish (Spain)
Language                                 : Spanish (ES)
Default                                  : No
Forced                                   : No

Text #13
ID                                       : 15
Format                                   : UTF-8
Codec ID                                 : S_TEXT/UTF8
Codec ID/Info                            : UTF-8 Plain Text
Duration                                 : 32 min 57 s
Bit rate                                 : 72 b/s
Frame rate                               : 0.254 FPS
Count of elements                        : 503
Stream size                              : 17.4 KiB (0%)
Language                                 : Estonian
Default                                  : No
Forced                                   : No

Text #14
ID                                       : 16
Format                                   : UTF-8
Codec ID                                 : S_TEXT/UTF8
Codec ID/Info                            : UTF-8 Plain Text
Duration                                 : 32 min 57 s
Bit rate                                 : 63 b/s
Frame rate                               : 0.233 FPS
Count of elements                        : 461
Stream size                              : 15.5 KiB (0%)
Language                                 : Finnish
Default                                  : No
Forced                                   : No

Text #15
ID                                       : 17
Format                                   : UTF-8
Codec ID                                 : S_TEXT/UTF8
Codec ID/Info                            : UTF-8 Plain Text
Duration                                 : 32 min 54 s
Bit rate                                 : 66 b/s
Frame rate                               : 0.272 FPS
Count of elements                        : 538
Stream size                              : 16.0 KiB (0%)
Title                                    : French (Canada)
Language                                 : French (CA)
Default                                  : No
Forced                                   : No

Text #16
ID                                       : 18
Format                                   : UTF-8
Codec ID                                 : S_TEXT/UTF8
Codec ID/Info                            : UTF-8 Plain Text
Duration                                 : 32 min 54 s
Bit rate                                 : 66 b/s
Frame rate                               : 0.272 FPS
Count of elements                        : 538
Stream size                              : 16.0 KiB (0%)
Title                                    : French (France)
Language                                 : French (FR)
Default                                  : No
Forced                                   : No

Text #17
ID                                       : 19
Format                                   : UTF-8
Codec ID                                 : S_TEXT/UTF8
Codec ID/Info                            : UTF-8 Plain Text
Duration                                 : 32 min 57 s
Bit rate                                 : 103 b/s
Frame rate                               : 0.265 FPS
Count of elements                        : 525
Stream size                              : 25.1 KiB (0%)
Language                                 : Hebrew
Default                                  : No
Forced                                   : No

Text #18
ID                                       : 20
Format                                   : UTF-8
Codec ID                                 : S_TEXT/UTF8
Codec ID/Info                            : UTF-8 Plain Text
Duration                                 : 32 min 57 s
Bit rate                                 : 208 b/s
Frame rate                               : 0.266 FPS
Count of elements                        : 526
Stream size                              : 50.4 KiB (0%)
Language                                 : Hindi
Default                                  : No
Forced                                   : No

Text #19
ID                                       : 21
Format                                   : UTF-8
Codec ID                                 : S_TEXT/UTF8
Codec ID/Info                            : UTF-8 Plain Text
Duration                                 : 32 min 57 s
Bit rate                                 : 73 b/s
Frame rate                               : 0.263 FPS
Count of elements                        : 521
Stream size                              : 17.7 KiB (0%)
Language                                 : Hungarian
Default                                  : No
Forced                                   : No

Text #20
ID                                       : 22
Format                                   : UTF-8
Codec ID                                 : S_TEXT/UTF8
Codec ID/Info                            : UTF-8 Plain Text
Duration                                 : 32 min 57 s
Bit rate                                 : 74 b/s
Frame rate                               : 0.264 FPS
Count of elements                        : 522
Stream size                              : 18.1 KiB (0%)
Language                                 : Indonesian
Default                                  : No
Forced                                   : No

Text #21
ID                                       : 23
Format                                   : UTF-8
Codec ID                                 : S_TEXT/UTF8
Codec ID/Info                            : UTF-8 Plain Text
Duration                                 : 33 min 5 s
Bit rate                                 : 76 b/s
Frame rate                               : 0.258 FPS
Count of elements                        : 513
Stream size                              : 18.6 KiB (0%)
Language                                 : Italian
Default                                  : No
Forced                                   : No

Text #22
ID                                       : 24
Format                                   : UTF-8
Codec ID                                 : S_TEXT/UTF8
Codec ID/Info                            : UTF-8 Plain Text
Duration                                 : 33 min 2 s
Bit rate                                 : 64 b/s
Frame rate                               : 0.250 FPS
Count of elements                        : 495
Stream size                              : 15.6 KiB (0%)
Language                                 : Japanese
Default                                  : No
Forced                                   : No

Text #23
ID                                       : 25
Format                                   : UTF-8
Codec ID                                 : S_TEXT/UTF8
Codec ID/Info                            : UTF-8 Plain Text
Duration                                 : 32 min 57 s
Bit rate                                 : 81 b/s
Frame rate                               : 0.266 FPS
Count of elements                        : 526
Stream size                              : 19.8 KiB (0%)
Language                                 : Korean
Default                                  : No
Forced                                   : No

Text #24
ID                                       : 26
Format                                   : UTF-8
Codec ID                                 : S_TEXT/UTF8
Codec ID/Info                            : UTF-8 Plain Text
Duration                                 : 32 min 57 s
Bit rate                                 : 76 b/s
Frame rate                               : 0.263 FPS
Count of elements                        : 521
Stream size                              : 18.5 KiB (0%)
Language                                 : Lithuanian
Default                                  : No
Forced                                   : No

Text #25
ID                                       : 27
Format                                   : UTF-8
Codec ID                                 : S_TEXT/UTF8
Codec ID/Info                            : UTF-8 Plain Text
Duration                                 : 32 min 57 s
Bit rate                                 : 77 b/s
Frame rate                               : 0.258 FPS
Count of elements                        : 511
Stream size                              : 18.7 KiB (0%)
Language                                 : Latvian
Default                                  : No
Forced                                   : No

Text #26
ID                                       : 28
Format                                   : UTF-8
Codec ID                                 : S_TEXT/UTF8
Codec ID/Info                            : UTF-8 Plain Text
Duration                                 : 32 min 57 s
Bit rate                                 : 75 b/s
Frame rate                               : 0.263 FPS
Count of elements                        : 521
Stream size                              : 18.1 KiB (0%)
Language                                 : Malay
Default                                  : No
Forced                                   : No

Text #27
ID                                       : 29
Format                                   : UTF-8
Codec ID                                 : S_TEXT/UTF8
Codec ID/Info                            : UTF-8 Plain Text
Duration                                 : 32 min 57 s
Bit rate                                 : 67 b/s
Frame rate                               : 0.211 FPS
Count of elements                        : 417
Stream size                              : 16.2 KiB (0%)
Language                                 : Dutch
Default                                  : No
Forced                                   : No

Text #28
ID                                       : 30
Format                                   : UTF-8
Codec ID                                 : S_TEXT/UTF8
Codec ID/Info                            : UTF-8 Plain Text
Duration                                 : 32 min 57 s
Bit rate                                 : 70 b/s
Frame rate                               : 0.217 FPS
Count of elements                        : 429
Stream size                              : 17.0 KiB (0%)
Language                                 : Norwegian
Default                                  : No
Forced                                   : No

Text #29
ID                                       : 31
Format                                   : UTF-8
Codec ID                                 : S_TEXT/UTF8
Codec ID/Info                            : UTF-8 Plain Text
Duration                                 : 32 min 57 s
Bit rate                                 : 66 b/s
Frame rate                               : 0.234 FPS
Count of elements                        : 463
Stream size                              : 15.9 KiB (0%)
Language                                 : Polish
Default                                  : No
Forced                                   : No

Text #30
ID                                       : 32
Format                                   : UTF-8
Codec ID                                 : S_TEXT/UTF8
Codec ID/Info                            : UTF-8 Plain Text
Duration                                 : 32 min 57 s
Bit rate                                 : 74 b/s
Frame rate                               : 0.260 FPS
Count of elements                        : 515
Stream size                              : 17.9 KiB (0%)
Title                                    : Portuguese
Language                                 : Portuguese
Default                                  : No
Forced                                   : No

Text #31
ID                                       : 33
Format                                   : UTF-8
Codec ID                                 : S_TEXT/UTF8
Codec ID/Info                            : UTF-8 Plain Text
Duration                                 : 32 min 57 s
Bit rate                                 : 69 b/s
Frame rate                               : 0.256 FPS
Count of elements                        : 506
Stream size                              : 16.9 KiB (0%)
Title                                    : Portuguese (Brazil)
Language                                 : Portuguese (BR)
Default                                  : No
Forced                                   : No

Text #32
ID                                       : 34
Format                                   : UTF-8
Codec ID                                 : S_TEXT/UTF8
Codec ID/Info                            : UTF-8 Plain Text
Duration                                 : 32 min 57 s
Bit rate                                 : 109 b/s
Frame rate                               : 0.258 FPS
Count of elements                        : 510
Stream size                              : 26.5 KiB (0%)
Language                                 : Russian
Default                                  : No
Forced                                   : No

Text #33
ID                                       : 35
Format                                   : UTF-8
Codec ID                                 : S_TEXT/UTF8
Codec ID/Info                            : UTF-8 Plain Text
Duration                                 : 32 min 57 s
Bit rate                                 : 73 b/s
Frame rate                               : 0.266 FPS
Count of elements                        : 526
Stream size                              : 17.7 KiB (0%)
Language                                 : Slovak
Default                                  : No
Forced                                   : No

Text #34
ID                                       : 36
Format                                   : UTF-8
Codec ID                                 : S_TEXT/UTF8
Codec ID/Info                            : UTF-8 Plain Text
Duration                                 : 32 min 57 s
Bit rate                                 : 60 b/s
Frame rate                               : 0.232 FPS
Count of elements                        : 458
Stream size                              : 14.5 KiB (0%)
Language                                 : Slovenian
Default                                  : No
Forced                                   : No

Text #35
ID                                       : 37
Format                                   : UTF-8
Codec ID                                 : S_TEXT/UTF8
Codec ID/Info                            : UTF-8 Plain Text
Duration                                 : 32 min 57 s
Bit rate                                 : 73 b/s
Frame rate                               : 0.264 FPS
Count of elements                        : 523
Stream size                              : 17.7 KiB (0%)
Language                                 : Swedish
Default                                  : No
Forced                                   : No

Text #36
ID                                       : 38
Format                                   : UTF-8
Codec ID                                 : S_TEXT/UTF8
Codec ID/Info                            : UTF-8 Plain Text
Duration                                 : 32 min 57 s
Bit rate                                 : 248 b/s
Frame rate                               : 0.265 FPS
Count of elements                        : 525
Stream size                              : 60.1 KiB (0%)
Language                                 : Tamil
Default                                  : No
Forced                                   : No

Text #37
ID                                       : 39
Format                                   : UTF-8
Codec ID                                 : S_TEXT/UTF8
Codec ID/Info                            : UTF-8 Plain Text
Duration                                 : 32 min 57 s
Bit rate                                 : 220 b/s
Frame rate                               : 0.265 FPS
Count of elements                        : 525
Stream size                              : 53.3 KiB (0%)
Language                                 : Telugu
Default                                  : No
Forced                                   : No

Text #38
ID                                       : 40
Format                                   : UTF-8
Codec ID                                 : S_TEXT/UTF8
Codec ID/Info                            : UTF-8 Plain Text
Duration                                 : 32 min 57 s
Bit rate                                 : 161 b/s
Frame rate                               : 0.264 FPS
Count of elements                        : 523
Stream size                              : 38.9 KiB (0%)
Language                                 : Thai
Default                                  : No
Forced                                   : No

Text #39
ID                                       : 41
Format                                   : UTF-8
Codec ID                                 : S_TEXT/UTF8
Codec ID/Info                            : UTF-8 Plain Text
Duration                                 : 32 min 57 s
Bit rate                                 : 73 b/s
Frame rate                               : 0.262 FPS
Count of elements                        : 518
Stream size                              : 17.7 KiB (0%)
Language                                 : Turkish
Default                                  : No
Forced                                   : No

Text #40
ID                                       : 42
Format                                   : UTF-8
Codec ID                                 : S_TEXT/UTF8
Codec ID/Info                            : UTF-8 Plain Text
Duration                                 : 32 min 57 s
Bit rate                                 : 109 b/s
Frame rate                               : 0.265 FPS
Count of elements                        : 525
Stream size                              : 26.4 KiB (0%)
Language                                 : Ukrainian
Default                                  : No
Forced                                   : No

Text #41
ID                                       : 43
Format                                   : UTF-8
Codec ID                                 : S_TEXT/UTF8
Codec ID/Info                            : UTF-8 Plain Text
Duration                                 : 32 min 57 s
Bit rate                                 : 98 b/s
Frame rate                               : 0.264 FPS
Count of elements                        : 523
Stream size                              : 23.9 KiB (0%)
Language                                 : Vietnamese
Default                                  : No
Forced                                   : No

Text #42
ID                                       : 44
Format                                   : UTF-8
Codec ID                                 : S_TEXT/UTF8
Codec ID/Info                            : UTF-8 Plain Text
Duration                                 : 32 min 57 s
Bit rate                                 : 59 b/s
Frame rate                               : 0.266 FPS
Count of elements                        : 526
Stream size                              : 14.3 KiB (0%)
Title                                    : Cantonese (Traditional)
Language                                 : Cantonese (Hant)
Default                                  : No
Forced                                   : No

Menu
00:00:00.000                             : en:Chapter 1
00:02:05.375                             : en:Intro
00:02:21.333                             : en:Chapter 2



Download
File Container: MKV
Video/Audio Codec: H264 (HIGH) EAC3
Video Resolution: 1422x646

2 Responses to "[RR/NF/CU] The Big Door Prize S02E08 Our Town 720p ATVP WEB-DL DDP5 1 H 264-NTb (855MB)"
05/29/24
03:52:31
ReadyPlayerOne

Thank you!

05/29/24
04:30:21
neexyy

The Big Door Prize S02E08 Our Town 1080p ATVP WEB-DL DDP5 1 H 264-NTb
2.49 GB
====================================================
https://rapidgator.net/file/37ba12ae9640f5fb238f486a734a2291

https://nitroflare.com/view/4C52638F9A2A2BC/The.Big.Door.Prize.S02E08.Our.Town.1080p.ATVP.WEB-DL.DDP5.1.H.264-NTb.mkv

https://clicknupload.space/z7936fzuxcto

The Big Door Prize S02E08 Our Town 720p ATVP WEB-DL DDP5 1 H 264-NTb
855 MB
===================================================
https://nitroflare.com/view/CA5735CB39E7329/The.Big.Door.Prize.S02E08.Our.Town.720p.ATVP.WEB-DL.DDP5.1.H.264-NTb.mkv

https://rapidgator.net/file/52503a2fe3eb0b411b21c1d0f945d7ef

https://clicknupload.space/ufrd088e96xg

The.Big.Door.Prize.S02E08.WEBRip.x264-XEN0N
=================================
https://nitroflare.com/view/08CDC9AD6E7C5F7/The.Big.Door.Prize.S02E08.WEBRip.x264-XEN0N.mkv

https://rapidgator.net/file/7a10fa0a960fb4c285963121dfff303a

https://clicknupload.space/tf3pyuvevnkc

The.Big.Door.Prize.S02E08.XviD-AFG
==========================
https://nitroflare.com/view/D4F2EFFD53C881F/The.Big.Door.Prize.S02E08.XviD-AFG.avi

https://rapidgator.net/file/c9271d432e91a69739370217f4cd9b4e

https://clicknupload.space/6oamav588cq6

===============

Please Login to post a comment.
If you don't have any account, please Register.
  • Subscribe my Feeds
  • Facebook
Encoding Queue:  x264  x265

Latest Episodes

Popular Movies and TV Shows

  • Criminal Minds
  • The Chi
  • I Saw the TV Glow
  • Species II
  • Kim's Video
  • Captivating the King
  • The Loud House
  • Power Book II: Ghost
  • The Boys
  • The Grab
  • Ultraman: Rising
  • Max Dugan Returns
  • WWE NXT
  • The Bold and the Beautiful
  • Walker
  • Hannah Einbinder: Everything Must Go
  • Exhuma
  • Alienoid: The Return to the Future
  • Evil
  • WWE Raw
  • Sistas
  • Brats
  • Mower Minions
  • Notas sobre un verano
  • The Daily Show

Recent Comments

  • waanaabe: Does anyone have season 1 and 2 of "The Mire"? here is just season 3 of this polish series...
  • Rmed:

    Links are dead. Re-upload please?

  • mentalityx:

    Rad bloke.

  • mentalityx:

    Thx bloke.

  • Diggety247:

    BrokenHanded, Try using a DL manager.

  • BrokenHanded: clicknupload does not seem to work for past few days. keep getting an error saying the site is sendi...
  • Bud: Helps if you actually add these to the "Late Night with Seth Meyers" page too...
  • rambaldi70:

    Hy! Right now, my download speed : 1 Mb/s
    this is ok?
    Tx answer

  • Cinque_Persson: At 183 MB this had to be something completely different. In fact it's just the main actors commentin...

Archives