Sign Up   |   Sign In  
Hannah Einbinder: Everything Must GoMILF of NorwayShrek Forever AfterWelcome to WrexhamSistasUltraman: RisingThe Bold and the BeautifulI Saw the TV GlowThe ChiBratsThe Big CigarNotas sobre un veranoWWE NXTThe BoysWalkerAssimilateMower MinionsGoodbye Uncle TomEvilBridgertonCriminal MindsIn the Line of FireLamp LifeThe Artifice GirlThe Daily Show

Announcements

05/20

2024

No

Comments

The Brokenwood Mysteries S10E04 Love You to Death 720p AMZN WEB-DL H264-NTb
[RR/NF]
Size: 3.2GB mkv H264 (HIGH) / EAC3  HD  1280x720

The Brokenwood Mysteries
File Information
[img]http://lookpic.com/cdn/i2/t/0520202408494305-1.jpg[/img]
[img]http://lookpic.com/cdn/i2/t/0520202408494305-2.jpg[/img]
[img]http://lookpic.com/cdn/i2/t/0520202408494305-3.jpg[/img]

General
Unique ID                                : 252239769299070807759443469737622331761 (0xBDC39CCBDF3FC6611D6D0DA3C5796171)
Complete name                            : The Brokenwood Mysteries S10E04 Love You to Death 720p AMZN WEB-DL H264-NTb.mkv
Format                                   : Matroska
Format version                           : Version 4
File size                                : 3.23 GiB
Duration                                 : 1 h 33 min
Overall bit rate                         : 4 949 kb/s
Frame rate                               : 25.000 FPS
Writing application                      : mkvmerge v84.0 ('Sleeper') 64-bit
Writing library                          : libebml v1.4.5 + libmatroska v1.7.1

Video
ID                                       : 1
Format                                   : AVC
Format/Info                              : Advanced Video Codec
Format profile                           : High@L3.1
Format settings                          : CABAC / 4 Ref Frames
Format settings, CABAC                   : Yes
Format settings, Reference frames        : 4 frames
Codec ID                                 : V_MPEG4/ISO/AVC
Duration                                 : 1 h 33 min
Bit rate mode                            : Constant
Bit rate                                 : 4 723 kb/s
Nominal bit rate                         : 6 000 kb/s
Width                                    : 1 280 pixels
Height                                   : 720 pixels
Display aspect ratio                     : 16:9
Frame rate mode                          : Constant
Frame rate                               : 25.000 FPS
Color space                              : YUV
Chroma subsampling                       : 4:2:0
Bit depth                                : 8 bits
Scan type                                : Progressive
Bits/(Pixel*Frame)                       : 0.205
Stream size                              : 3.08 GiB (95%)
Default                                  : Yes
Forced                                   : No
Color range                              : Limited
Color primaries                          : BT.709
Transfer characteristics                 : BT.709
Matrix coefficients                      : BT.709

Audio
ID                                       : 2
Format                                   : E-AC-3
Format/Info                              : Enhanced AC-3
Commercial name                          : Dolby Digital Plus
Codec ID                                 : A_EAC3
Duration                                 : 1 h 33 min
Bit rate mode                            : Constant
Bit rate                                 : 224 kb/s
Channel(s)                               : 2 channels
Channel layout                           : L R
Sampling rate                            : 48.0 kHz
Frame rate                               : 31.250 FPS (1536 SPF)
Compression mode                         : Lossy
Stream size                              : 150 MiB (5%)
Language                                 : English (NZ)
Service kind                             : Complete Main
Default                                  : Yes
Forced                                   : No

Text #1
ID                                       : 3
Format                                   : UTF-8
Codec ID                                 : S_TEXT/UTF8
Codec ID/Info                            : UTF-8 Plain Text
Duration                                 : 1 h 33 min
Bit rate                                 : 80 b/s
Frame rate                               : 0.322 FPS
Count of elements                        : 1800
Stream size                              : 54.8 KiB (0%)
Language                                 : English (NZ)
Default                                  : No
Forced                                   : No

Text #2
ID                                       : 4
Format                                   : UTF-8
Codec ID                                 : S_TEXT/UTF8
Codec ID/Info                            : UTF-8 Plain Text
Duration                                 : 1 h 33 min
Bit rate                                 : 82 b/s
Frame rate                               : 0.332 FPS
Count of elements                        : 1854
Stream size                              : 56.1 KiB (0%)
Title                                    : SDH
Language                                 : English (NZ)
Default                                  : No
Forced                                   : No



Download
File Container: MKV
Video/Audio Codec: H264 (HIGH) EAC3
Video Resolution: 1280x720
Please Login to post a comment.
If you don't have any account, please Register.
  • Subscribe my Feeds
  • Facebook
Encoding Queue:  x264  x265

Latest Episodes

Popular Movies and TV Shows

  • Hannah Einbinder: Everything Must Go
  • MILF of Norway
  • Shrek Forever After
  • Welcome to Wrexham
  • Sistas
  • Ultraman: Rising
  • The Bold and the Beautiful
  • I Saw the TV Glow
  • The Chi
  • Brats
  • The Big Cigar
  • Notas sobre un verano
  • WWE NXT
  • The Boys
  • Walker
  • Assimilate
  • Mower Minions
  • Goodbye Uncle Tom
  • Evil
  • Bridgerton
  • Criminal Minds
  • In the Line of Fire
  • Lamp Life
  • The Artifice Girl
  • The Daily Show

Recent Comments

Archives