Sign Up   |   Sign In  
The Fall GuyBoy Kills WorldThe VeilSeize Them!Unnamed MemoryAll AmericanClub ZeroYoung SheldonWWE RawBelow DeckStress PositionsShadow MagicBetter Call SaulThe EqualizerThe Name of the RoseThe SimpsonsTMZ Presents: The Downfall of DiddyDevil in the FleshTrackerS.W.A.T.The SympathizerTales of Ordinary MadnessGolden KamuyArthur the KingBeacon 23

Announcements

04/22

2024

No

Comments

The Equalizer 2021 S04E06 DOA 720p AMZN WEB-DL DDP5 1 H 264-FLUX
[RR/NF/CU]
Size: 1.3GB mkv H264 (HIGH) / EAC3  HD  1280x720

The Equalizer
File Information
[img]http://lookpic.com/cdn/i2/t/0422202407460708-1.jpg[/img]
[img]http://lookpic.com/cdn/i2/t/0422202407460708-2.jpg[/img]
[img]http://lookpic.com/cdn/i2/t/0422202407460708-3.jpg[/img]

General
Unique ID                                : 180731489943099658196608576187471355982 (0x87F79E6C22A2893E11858275EBCDE04E)
Complete name                            : The Equalizer 2021 S04E06 DOA 720p AMZN WEB-DL DDP5 1 H 264-FLUX.mkv
Format                                   : Matroska
Format version                           : Version 4
File size                                : 1.26 GiB
Duration                                 : 43 min 18 s
Overall bit rate                         : 4 171 kb/s
Frame rate                               : 23.976 FPS
Writing application                      : mkvmerge v83.0 ('Circle Of Friends') 64-bit
Writing library                          : libebml v1.4.5 + libmatroska v1.7.1

Video
ID                                       : 1
Format                                   : AVC
Format/Info                              : Advanced Video Codec
Format profile                           : High@L3.1
Format settings                          : CABAC / 4 Ref Frames
Format settings, CABAC                   : Yes
Format settings, Reference frames        : 4 frames
Codec ID                                 : V_MPEG4/ISO/AVC
Duration                                 : 43 min 18 s
Bit rate mode                            : Constant
Bit rate                                 : 3 529 kb/s
Nominal bit rate                         : 4 000 kb/s
Width                                    : 1 280 pixels
Height                                   : 720 pixels
Display aspect ratio                     : 16:9
Frame rate mode                          : Constant
Frame rate                               : 23.976 (24000/1001) FPS
Color space                              : YUV
Chroma subsampling                       : 4:2:0
Bit depth                                : 8 bits
Scan type                                : Progressive
Bits/(Pixel*Frame)                       : 0.160
Stream size                              : 1.07 GiB (85%)
Language                                 : English (US)
Default                                  : Yes
Forced                                   : No
Color range                              : Limited
Color primaries                          : BT.709
Transfer characteristics                 : BT.709
Matrix coefficients                      : BT.709

Audio
ID                                       : 2
Format                                   : E-AC-3
Format/Info                              : Enhanced AC-3
Commercial name                          : Dolby Digital Plus
Codec ID                                 : A_EAC3
Duration                                 : 43 min 18 s
Bit rate mode                            : Constant
Bit rate                                 : 640 kb/s
Channel(s)                               : 6 channels
Channel layout                           : L R C LFE Ls Rs
Sampling rate                            : 48.0 kHz
Frame rate                               : 31.250 FPS (1536 SPF)
Compression mode                         : Lossy
Stream size                              : 198 MiB (15%)
Language                                 : English (US)
Service kind                             : Complete Main
Default                                  : Yes
Forced                                   : No

Text #1
ID                                       : 3
Format                                   : UTF-8
Codec ID                                 : S_TEXT/UTF8
Codec ID/Info                            : UTF-8 Plain Text
Duration                                 : 42 min 47 s
Bit rate                                 : 96 b/s
Frame rate                               : 0.382 FPS
Count of elements                        : 980
Stream size                              : 30.3 KiB (0%)
Language                                 : English (US)
Default                                  : No
Forced                                   : No

Text #2
ID                                       : 4
Format                                   : UTF-8
Codec ID                                 : S_TEXT/UTF8
Codec ID/Info                            : UTF-8 Plain Text
Duration                                 : 42 min 47 s
Bit rate                                 : 101 b/s
Frame rate                               : 0.409 FPS
Count of elements                        : 1050
Stream size                              : 31.9 KiB (0%)
Title                                    : SDH
Language                                 : English (US)
Default                                  : No
Forced                                   : No

Menu
00:00:00.000                             : en:Scene 1
00:00:02.000                             : en:Recap
00:00:30.000                             : en:Scene 2
00:42:49.000                             : en:End Credits



Download
File Container: MKV
Video/Audio Codec: H264 (HIGH) EAC3
Video Resolution: 1280x720
Please Login to post a comment.
If you don't have any account, please Register.
  • Subscribe my Feeds
  • Facebook
Encoding Queue:  x264  x265

Latest Episodes

Popular Movies and TV Shows

  • The Fall Guy
  • Boy Kills World
  • The Veil
  • Seize Them!
  • Unnamed Memory
  • All American
  • Club Zero
  • Young Sheldon
  • WWE Raw
  • Below Deck
  • Stress Positions
  • Shadow Magic
  • Better Call Saul
  • The Equalizer
  • The Name of the Rose
  • The Simpsons
  • TMZ Presents: The Downfall of Diddy
  • Devil in the Flesh
  • Tracker
  • S.W.A.T.
  • The Sympathizer
  • Tales of Ordinary Madness
  • Golden Kamuy
  • Arthur the King
  • Beacon 23

Recent Comments

  • PROFessorMorrynarty: Would it be possible to upload 'Lego masters Australia' Series 6 Episode 6 Please? It's the only one...
  • mentalityx:

    Thx mate.

  • Bud: Is the search engine down for everyone, or just me? It just says 'You're forbidden!' whenever I lo...
  • 23d1:

    not episode 4 it is episode 3

  • 23d1:

    not episode 4 it is episode 3

  • 23d1:

    not episode 4 it is episode 3

  • 23d1:

    not episode 4 it is episode 3

  • aaroz88:

    Trimas!!

  • mptoo: I don't often ask this, infact this would be the first time, but I don't suppose there is any chance...
  • Cinque_Persson:

    btw:
    quote /quote
    is broken

  • gabrielsyme:

    Sorry but where is the clicknupload link?

  • mike1204:

    Is this episode doomed??? The RMX avi version is only 12 minutes long!!!

Archives