Sign Up   |   Sign In  
The AbyssBeyond ParadiseWWE Smackdown!Man on FireCreed IIIDoom PatrolYoung SheldonLaw & Order: Organized CrimeLaw & Order Toronto: Criminal IntentThe Greatest HitsThe UntouchablesFour Souls of CoyoteFalloutDamagedSugarLaRoy, TexasA Gentleman in MoscowParachuteElsbethFranklinGhosts10 LivesUntitled Woody WoodpeckerA Model MurderStar Trek: Discovery

Announcements

03/29

2024

1

Comments

The Gentleman in Moscow S01E01 A Master of Circumstance 720p AMZN WEB-DL DDP5 1 H 264-NTb
[RR/NF/CU]
Size: 1.4GB mkv H264 (HIGH) / EAC3  HD  1280x720

A Gentleman in Moscow
File Information
[img]http://lookpic.com/cdn/i2/t/0329202415292819-1.jpg[/img]
[img]http://lookpic.com/cdn/i2/t/0329202415292819-2.jpg[/img]
[img]http://lookpic.com/cdn/i2/t/0329202415292819-3.jpg[/img]

General
Unique ID                                : 91871877631426250829960984511398169722 (0x451DE148D7C7F7ABEA57E013CD9E4C7A)
Complete name                            : The Gentleman in Moscow S01E01 A Master of Circumstance 720p AMZN WEB-DL DDP5 1 H 264-NTb.mkv
Format                                   : Matroska
Format version                           : Version 4
File size                                : 1.38 GiB
Duration                                 : 48 min 28 s
Overall bit rate                         : 4 088 kb/s
Frame rate                               : 23.976 FPS
Writing application                      : mkvmerge v81.0 ('Milliontown') 64-bit
Writing library                          : libebml v1.4.4 + libmatroska v1.7.1

Video
ID                                       : 1
Format                                   : AVC
Format/Info                              : Advanced Video Codec
Format profile                           : High@L3.1
Format settings                          : CABAC / 4 Ref Frames
Format settings, CABAC                   : Yes
Format settings, Reference frames        : 4 frames
Codec ID                                 : V_MPEG4/ISO/AVC
Duration                                 : 48 min 28 s
Bit rate mode                            : Constant
Bit rate                                 : 3 446 kb/s
Nominal bit rate                         : 4 000 kb/s
Width                                    : 1 280 pixels
Height                                   : 720 pixels
Display aspect ratio                     : 16:9
Frame rate mode                          : Constant
Frame rate                               : 23.976 (24000/1001) FPS
Color space                              : YUV
Chroma subsampling                       : 4:2:0
Bit depth                                : 8 bits
Scan type                                : Progressive
Bits/(Pixel*Frame)                       : 0.156
Stream size                              : 1.17 GiB (84%)
Default                                  : Yes
Forced                                   : No
Color range                              : Limited
Color primaries                          : BT.709
Transfer characteristics                 : BT.709
Matrix coefficients                      : BT.709

Audio
ID                                       : 2
Format                                   : E-AC-3
Format/Info                              : Enhanced AC-3
Commercial name                          : Dolby Digital Plus
Codec ID                                 : A_EAC3
Duration                                 : 48 min 28 s
Bit rate mode                            : Constant
Bit rate                                 : 640 kb/s
Channel(s)                               : 6 channels
Channel layout                           : L R C LFE Ls Rs
Sampling rate                            : 48.0 kHz
Frame rate                               : 31.250 FPS (1536 SPF)
Compression mode                         : Lossy
Stream size                              : 222 MiB (16%)
Language                                 : English (US)
Service kind                             : Complete Main
Default                                  : Yes
Forced                                   : No

Text #1
ID                                       : 3
Format                                   : UTF-8
Codec ID                                 : S_TEXT/UTF8
Codec ID/Info                            : UTF-8 Plain Text
Duration                                 : 47 min 15 s
Bit rate                                 : 44 b/s
Frame rate                               : 0.176 FPS
Count of elements                        : 498
Stream size                              : 15.3 KiB (0%)
Language                                 : English (US)
Default                                  : No
Forced                                   : No

Text #2
ID                                       : 4
Format                                   : UTF-8
Codec ID                                 : S_TEXT/UTF8
Codec ID/Info                            : UTF-8 Plain Text
Duration                                 : 47 min 49 s
Bit rate                                 : 51 b/s
Frame rate                               : 0.218 FPS
Count of elements                        : 625
Stream size                              : 17.9 KiB (0%)
Title                                    : SDH
Language                                 : English (US)
Default                                  : No
Forced                                   : No



Download
File Container: MKV
Video/Audio Codec: H264 (HIGH) EAC3
Video Resolution: 1280x720

1 Response to "[RR/NF/CU] The Gentleman in Moscow S01E01 A Master of Circumstance 720p AMZN WEB-DL DDP5 1 H 264-NTb (1.4GB)"
03/29/24
17:34:14
ReadyPlayerOne

Thank you!

Please Login to post a comment.
If you don't have any account, please Register.
  • Subscribe my Feeds
  • Facebook
Encoding Queue:  x264  x265

Latest Episodes

Popular Movies and TV Shows

  • The Abyss
  • Beyond Paradise
  • WWE Smackdown!
  • Man on Fire
  • Creed III
  • Doom Patrol
  • Young Sheldon
  • Law & Order: Organized Crime
  • Law & Order Toronto: Criminal Intent
  • The Greatest Hits
  • The Untouchables
  • Four Souls of Coyote
  • Fallout
  • Damaged
  • Sugar
  • LaRoy, Texas
  • A Gentleman in Moscow
  • Parachute
  • Elsbeth
  • Franklin
  • Ghosts
  • 10 Lives
  • Untitled Woody Woodpecker
  • A Model Murder
  • Star Trek: Discovery

Recent Comments

  • theahtisham:

    Kindly upload Ep. 3 and 4 as well.

  • Kudzu: Update on sound issue, File's codec info says stereo but is only a the left channel If I switch i...
  • Admin:

    kang
    Getting error while encoding, sorry

  • rambaldi70:

    sorry this release ok.
    but descripton is bad
    (Duration: 2h56m7s)

  • mentalityx:

    Thx bloke.

  • Cinemoan: I've been getting the same error message as budo here - There's no rhyme or reason to when it pops u...

Archives