Sign Up   |   Sign In  
Devil in the FleshThe SimpsonsKrapopolisGolden KamuyWhen Calls the HeartChallengersTrackerThe EqualizerCSI: VegasTriple FrontierA Walk Among the TombstonesAsk Dr. RuthThe SympathizerBob's BurgersThe Great NorthThe Baby DaddyPhil Tippett: Mad Dreams and MonstersDawn of the Planet of the ApesBeacon 23Young SheldonInterview with the VampireEverything PuppiesExhumaPlanet of the ApesS.W.A.T.

Announcements

04/23

2024

No

Comments

The Great North S04E11 High Expectations Adventure 1080p HULU WEB-DL DDP5 1 H 264-NTb
[RR/NF/CU]
Size: 365MB mkv H264 (HIGH) / EAC3  HD  1920x1080

The Great North
File Information
[img]http://lookpic.com/cdn/i2/t/0423202420400470-1.jpg[/img]
[img]http://lookpic.com/cdn/i2/t/0423202420400470-2.jpg[/img]
[img]http://lookpic.com/cdn/i2/t/0423202420400470-3.jpg[/img]

General
Unique ID                                : 163493450793040317092901619944874253715 (0x7AFFB17971E360B6583B1A273CB31D93)
Complete name                            : The Great North S04E11 High Expectations Adventure 1080p HULU WEB-DL DDP5 1 H 264-NTb.mkv
Format                                   : Matroska
Format version                           : Version 4
File size                                : 366 MiB
Duration                                 : 21 min 37 s
Overall bit rate                         : 2 365 kb/s
Frame rate                               : 23.976 FPS
Writing application                      : mkvmerge v80.0 ('Roundabout') 64-bit
Writing library                          : libebml v1.4.4 + libmatroska v1.7.1

Video
ID                                       : 1
Format                                   : AVC
Format/Info                              : Advanced Video Codec
Format profile                           : High@L4
Format settings                          : CABAC / 4 Ref Frames
Format settings, CABAC                   : Yes
Format settings, Reference frames        : 4 frames
Codec ID                                 : V_MPEG4/ISO/AVC
Duration                                 : 21 min 37 s
Bit rate                                 : 2 107 kb/s
Width                                    : 1 920 pixels
Height                                   : 1 080 pixels
Display aspect ratio                     : 16:9
Frame rate mode                          : Constant
Frame rate                               : 23.976 (24000/1001) FPS
Color space                              : YUV
Chroma subsampling                       : 4:2:0
Bit depth                                : 8 bits
Scan type                                : Progressive
Bits/(Pixel*Frame)                       : 0.042
Stream size                              : 326 MiB (89%)
Default                                  : Yes
Forced                                   : No

Audio
ID                                       : 2
Format                                   : E-AC-3
Format/Info                              : Enhanced AC-3
Commercial name                          : Dolby Digital Plus
Codec ID                                 : A_EAC3
Duration                                 : 21 min 37 s
Bit rate mode                            : Constant
Bit rate                                 : 256 kb/s
Channel(s)                               : 6 channels
Channel layout                           : L R C LFE Ls Rs
Sampling rate                            : 48.0 kHz
Frame rate                               : 31.250 FPS (1536 SPF)
Compression mode                         : Lossy
Stream size                              : 39.6 MiB (11%)
Language                                 : English
Service kind                             : Complete Main
Default                                  : Yes
Forced                                   : No

Text #1
ID                                       : 3
Format                                   : UTF-8
Codec ID                                 : S_TEXT/UTF8
Codec ID/Info                            : UTF-8 Plain Text
Duration                                 : 21 min 33 s
Bit rate                                 : 125 b/s
Frame rate                               : 0.446 FPS
Count of elements                        : 577
Stream size                              : 19.9 KiB (0%)
Language                                 : English
Default                                  : No
Forced                                   : No

Text #2
ID                                       : 4
Format                                   : UTF-8
Codec ID                                 : S_TEXT/UTF8
Codec ID/Info                            : UTF-8 Plain Text
Duration                                 : 21 min 33 s
Bit rate                                 : 131 b/s
Frame rate                               : 0.454 FPS
Count of elements                        : 588
Stream size                              : 20.7 KiB (0%)
Title                                    : SDH
Language                                 : English
Default                                  : No
Forced                                   : No

Menu
00:00:00.000                             : en:Chapter 1
00:07:06.006                             : en:Chapter 2
00:12:47.009                             : en:Chapter 3
00:16:46.015                             : en:Chapter 4



Download
File Container: MKV
Video/Audio Codec: H264 (HIGH) EAC3
Video Resolution: 1920x1080
Please Login to post a comment.
If you don't have any account, please Register.
  • Subscribe my Feeds
  • Facebook
Encoding Queue:  x264  x265

Latest Episodes

Popular Movies and TV Shows

  • Devil in the Flesh
  • The Simpsons
  • Krapopolis
  • Golden Kamuy
  • When Calls the Heart
  • Challengers
  • Tracker
  • The Equalizer
  • CSI: Vegas
  • Triple Frontier
  • A Walk Among the Tombstones
  • Ask Dr. Ruth
  • The Sympathizer
  • Bob's Burgers
  • The Great North
  • The Baby Daddy
  • Phil Tippett: Mad Dreams and Monsters
  • Dawn of the Planet of the Apes
  • Beacon 23
  • Young Sheldon
  • Interview with the Vampire
  • Everything Puppies
  • Exhuma
  • Planet of the Apes
  • S.W.A.T.

Recent Comments

  • Bud: Is the search engine down for everyone, or just me? It just says 'You're forbidden!' whenever I lo...
  • 23d1:

    not episode 4 it is episode 3

  • 23d1:

    not episode 4 it is episode 3

  • 23d1:

    not episode 4 it is episode 3

  • 23d1:

    not episode 4 it is episode 3

  • aaroz88:

    Trimas!!

  • mptoo: I don't often ask this, infact this would be the first time, but I don't suppose there is any chance...
  • Cinque_Persson:

    btw:
    quote /quote
    is broken

  • gabrielsyme:

    Sorry but where is the clicknupload link?

  • mike1204:

    Is this episode doomed??? The RMX avi version is only 12 minutes long!!!

  • waanaabe:

    Could PUSHING DAISES kindly be upoaded to CU? THANKS!

Archives