Sign Up   |   Sign In  
My Adventures with SupermanThe Body StealersGypsy Rose: Life After Lock UpTheresa Caputo: Raising SpiritsCats in the MuseumChristmas Is CanceledMayor of KingstownInterview with the VampireHotel CocaineDaaaaaali!OctopussySatan's ChildrenLadies in BlackBilly the KidWalkerKung Fu HustleLicence to KillLook to the LightWWE NXTThe Loud HouseThe Bold and the BeautifulThere's Something About MaryVice News Presents: Mass Shooting AmericaInside Out 2The Daily Show

Announcements

05/15

2024

1

Comments

The Rookie S06E09 The Squeeze 720p AMZN WEB-DL DDP5 1 H 264-FLUX
[RR/NF/CU]
Size: 1.4GB mkv H264 (HIGH) / EAC3  HD  1280x720

The Rookie
File Information
[img]http://lookpic.com/cdn/i2/t/0515202406451685-1.jpg[/img]
[img]http://lookpic.com/cdn/i2/t/0515202406451685-2.jpg[/img]
[img]http://lookpic.com/cdn/i2/t/0515202406451685-3.jpg[/img]

General
Unique ID                                : 226489637307612524206002739693065383950 (0xAA645144F45FFF5E6825748B3DECB00E)
Complete name                            : The Rookie S06E09 The Squeeze 720p AMZN WEB-DL DDP5 1 H 264-FLUX.mkv
Format                                   : Matroska
Format version                           : Version 4
File size                                : 1.37 GiB
Duration                                 : 42 min 57 s
Overall bit rate                         : 4 567 kb/s
Frame rate                               : 23.976 FPS
Writing application                      : mkvmerge v83.0 ('Circle Of Friends') 64-bit
Writing library                          : libebml v1.4.5 + libmatroska v1.7.1

Video
ID                                       : 1
Format                                   : AVC
Format/Info                              : Advanced Video Codec
Format profile                           : High@L3.1
Format settings                          : CABAC / 4 Ref Frames
Format settings, CABAC                   : Yes
Format settings, Reference frames        : 4 frames
Codec ID                                 : V_MPEG4/ISO/AVC
Duration                                 : 42 min 57 s
Bit rate mode                            : Constant
Bit rate                                 : 3 924 kb/s
Nominal bit rate                         : 6 000 kb/s
Width                                    : 1 280 pixels
Height                                   : 720 pixels
Display aspect ratio                     : 16:9
Frame rate mode                          : Constant
Frame rate                               : 23.976 (24000/1001) FPS
Color space                              : YUV
Chroma subsampling                       : 4:2:0
Bit depth                                : 8 bits
Scan type                                : Progressive
Bits/(Pixel*Frame)                       : 0.178
Stream size                              : 1.18 GiB (86%)
Language                                 : English (US)
Default                                  : Yes
Forced                                   : No
Color range                              : Limited
Color primaries                          : BT.709
Transfer characteristics                 : BT.709
Matrix coefficients                      : BT.709

Audio
ID                                       : 2
Format                                   : E-AC-3
Format/Info                              : Enhanced AC-3
Commercial name                          : Dolby Digital Plus
Codec ID                                 : A_EAC3
Duration                                 : 42 min 57 s
Bit rate mode                            : Constant
Bit rate                                 : 640 kb/s
Channel(s)                               : 6 channels
Channel layout                           : L R C LFE Ls Rs
Sampling rate                            : 48.0 kHz
Frame rate                               : 31.250 FPS (1536 SPF)
Compression mode                         : Lossy
Stream size                              : 197 MiB (14%)
Language                                 : English
Service kind                             : Complete Main
Default                                  : Yes
Forced                                   : No

Text #1
ID                                       : 3
Format                                   : UTF-8
Codec ID                                 : S_TEXT/UTF8
Codec ID/Info                            : UTF-8 Plain Text
Duration                                 : 42 min 51 s
Bit rate                                 : 106 b/s
Frame rate                               : 0.393 FPS
Count of elements                        : 1011
Stream size                              : 33.3 KiB (0%)
Language                                 : English (US)
Default                                  : No
Forced                                   : No

Text #2
ID                                       : 4
Format                                   : UTF-8
Codec ID                                 : S_TEXT/UTF8
Codec ID/Info                            : UTF-8 Plain Text
Duration                                 : 42 min 51 s
Bit rate                                 : 110 b/s
Frame rate                               : 0.419 FPS
Count of elements                        : 1078
Stream size                              : 34.5 KiB (0%)
Title                                    : SDH
Language                                 : English (US)
Default                                  : No
Forced                                   : No

Menu
00:00:00.000                             : en:Scene 1
00:00:02.000                             : en:Recap
00:01:00.000                             : en:Scene 2
00:42:18.000                             : en:End Credits



Download
File Container: MKV
Video/Audio Codec: H264 (HIGH) EAC3
Video Resolution: 1280x720

1 Response to "[RR/NF/CU] The Rookie S06E09 The Squeeze 720p AMZN WEB-DL DDP5 1 H 264-FLUX (1.4GB)"
05/15/24
07:28:58
ReadyPlayerOne

Thank You

Please Login to post a comment.
If you don't have any account, please Register.
  • Subscribe my Feeds
  • Facebook
Encoding Queue:  x264  x265

Latest Episodes

Popular Movies and TV Shows

  • My Adventures with Superman
  • The Body Stealers
  • Gypsy Rose: Life After Lock Up
  • Theresa Caputo: Raising Spirits
  • Cats in the Museum
  • Christmas Is Canceled
  • Mayor of Kingstown
  • Interview with the Vampire
  • Hotel Cocaine
  • Daaaaaali!
  • Octopussy
  • Satan's Children
  • Ladies in Black
  • Billy the Kid
  • Walker
  • Kung Fu Hustle
  • Licence to Kill
  • Look to the Light
  • WWE NXT
  • The Loud House
  • The Bold and the Beautiful
  • There's Something About Mary
  • Vice News Presents: Mass Shooting America
  • Inside Out 2
  • The Daily Show

Recent Comments

Archives