Sign Up   |   Sign In  
MILF of NorwayHannah Einbinder: Everything Must GoI Saw the TV GlowThe ChiSistasBratsThe Bold and the BeautifulThe ChosenThe Big CigarThe EgyptianNotas sobre un veranoInside Out 2WWE NXTThe BoysWalkerAssimilateMower MinionsMiddle of the NightEvilBridgertonCriminal MindsIn the Line of FireThe Artifice GirlLamp LifeThe Daily Show

Announcements

05/20

2024

1

Comments

The Simpsons S35E18 Barts Brain 1080p HULU WEB-DL DDP5 1 H 264-NTb
[RR/NF/CU]
Size: 927MB 2 CDs mkv H264 (HIGH) / EAC3  HD  1920x1080

The Simpsons
File Information
[img]http://lookpic.com/cdn/i2/t/0520202416002791-1.jpg[/img]
[img]http://lookpic.com/cdn/i2/t/0520202416002791-2.jpg[/img]
[img]http://lookpic.com/cdn/i2/t/0520202416002791-3.jpg[/img]

General
Unique ID                                : 227184243038057069712563028178757244486 (0xAAEA17F9D6D7F5BCB22C3AD1D99C5646)
Complete name                            : c541a6a863084505b257135ba9cd99bc.mkv
Format                                   : Matroska
Format version                           : Version 4
File size                                : 464 MiB
Duration                                 : 21 min 39 s
Overall bit rate                         : 2 994 kb/s
Frame rate                               : 23.976 FPS
Writing application                      : mkvmerge v80.0 ('Roundabout') 64-bit
Writing library                          : libebml v1.4.4 + libmatroska v1.7.1

Video
ID                                       : 1
Format                                   : AVC
Format/Info                              : Advanced Video Codec
Format profile                           : High@L4
Format settings                          : CABAC / 4 Ref Frames
Format settings, CABAC                   : Yes
Format settings, Reference frames        : 4 frames
Codec ID                                 : V_MPEG4/ISO/AVC
Duration                                 : 21 min 39 s
Bit rate                                 : 2 736 kb/s
Width                                    : 1 920 pixels
Height                                   : 1 080 pixels
Display aspect ratio                     : 16:9
Frame rate mode                          : Constant
Frame rate                               : 23.976 (24000/1001) FPS
Color space                              : YUV
Chroma subsampling                       : 4:2:0
Bit depth                                : 8 bits
Scan type                                : Progressive
Bits/(Pixel*Frame)                       : 0.055
Stream size                              : 424 MiB (91%)
Default                                  : Yes
Forced                                   : No

Audio
ID                                       : 2
Format                                   : E-AC-3
Format/Info                              : Enhanced AC-3
Commercial name                          : Dolby Digital Plus
Codec ID                                 : A_EAC3
Duration                                 : 21 min 38 s
Bit rate mode                            : Constant
Bit rate                                 : 256 kb/s
Channel(s)                               : 6 channels
Channel layout                           : L R C LFE Ls Rs
Sampling rate                            : 48.0 kHz
Frame rate                               : 31.250 FPS (1536 SPF)
Compression mode                         : Lossy
Stream size                              : 39.6 MiB (9%)
Language                                 : English
Service kind                             : Complete Main
Default                                  : Yes
Forced                                   : No

Text #1
ID                                       : 3
Format                                   : UTF-8
Codec ID                                 : S_TEXT/UTF8
Codec ID/Info                            : UTF-8 Plain Text
Duration                                 : 21 min 23 s
Bit rate                                 : 90 b/s
Frame rate                               : 0.360 FPS
Count of elements                        : 462
Stream size                              : 14.2 KiB (0%)
Language                                 : English
Default                                  : No
Forced                                   : No

Text #2
ID                                       : 4
Format                                   : UTF-8
Codec ID                                 : S_TEXT/UTF8
Codec ID/Info                            : UTF-8 Plain Text
Duration                                 : 21 min 24 s
Bit rate                                 : 98 b/s
Frame rate                               : 0.387 FPS
Count of elements                        : 497
Stream size                              : 15.5 KiB (0%)
Title                                    : SDH
Language                                 : English
Default                                  : No
Forced                                   : No

Menu
00:00:00.000                             : en:Chapter 1
00:05:45.005                             : en:Chapter 2
00:14:08.002                             : en:Chapter 3
00:20:47.019                             : en:Chapter 4
00:21:12.010                             : en:Credits



Download
File Container: MKV
Video/Audio Codec: H264 (HIGH) EAC3
Video Resolution: 1920x1080

1 Response to "[RR/NF/CU] The Simpsons S35E18 Barts Brain 1080p HULU WEB-DL DDP5 1 H 264-NTb (927MB)"
05/20/24
16:18:05
ReadyPlayerOne

Thank You

Please Login to post a comment.
If you don't have any account, please Register.
  • Subscribe my Feeds
  • Facebook
Encoding Queue:  x264  x265

Latest Episodes

Popular Movies and TV Shows

  • MILF of Norway
  • Hannah Einbinder: Everything Must Go
  • I Saw the TV Glow
  • The Chi
  • Sistas
  • Brats
  • The Bold and the Beautiful
  • The Chosen
  • The Big Cigar
  • The Egyptian
  • Notas sobre un verano
  • Inside Out 2
  • WWE NXT
  • The Boys
  • Walker
  • Assimilate
  • Mower Minions
  • Middle of the Night
  • Evil
  • Bridgerton
  • Criminal Minds
  • In the Line of Fire
  • The Artifice Girl
  • Lamp Life
  • The Daily Show

Recent Comments

Archives