Sign Up   |   Sign In  
IFBelow Deck MediterraneanThe Bold and the BeautifulTiresHandling the UndeadOne More ShotCamp SnoopyQuintessentially IrishAgents of MysteryChallenge of the TigerDinner Time Live with David ChangHack Your Health: The Secrets of Your GutNCISHouse of the DragonStar Trek: DiscoveryI Used to Be FunnyWe Grown NowThe Ministry of Ungentlemanly WarfareWWE RawThe AcolyteWalkerInside Out 2Patriots DayThe FleshThe Daily Show

Announcements

05/27

2024

2

Comments

The Sympathizer S01E07 Endings Are Hard Arent They 720p AMZN WEB-DL DDP5 1 H 264-NTb
[RR/CU]
Size: 1.8GB mkv H264 (HIGH) / EAC3  HD  1280x640

The Sympathizer
File Information
[img]http://lookpic.com/cdn/i2/t/0527202404450205-1.jpg[/img]
[img]http://lookpic.com/cdn/i2/t/0527202404450205-2.jpg[/img]
[img]http://lookpic.com/cdn/i2/t/0527202404450205-3.jpg[/img]

General
Unique ID                                : 117492338627074432645162076636216448757 (0x58643389B1B72F0E3EBF7B11370656F5)
Complete name                            : The Sympathizer S01E07 Endings Are Hard Arent They 720p AMZN WEB-DL DDP5 1 H 264-NTb.mkv
Format                                   : Matroska
Format version                           : Version 4
File size                                : 1.79 GiB
Duration                                 : 59 min 43 s
Overall bit rate                         : 4 294 kb/s
Frame rate                               : 23.976 FPS
Writing application                      : mkvmerge v84.0 ('Sleeper') 64-bit
Writing library                          : libebml v1.4.5 + libmatroska v1.7.1

Video
ID                                       : 1
Format                                   : AVC
Format/Info                              : Advanced Video Codec
Format profile                           : High@L3.1
Format settings                          : CABAC / 4 Ref Frames
Format settings, CABAC                   : Yes
Format settings, Reference frames        : 4 frames
Codec ID                                 : V_MPEG4/ISO/AVC
Duration                                 : 59 min 43 s
Bit rate mode                            : Constant
Bit rate                                 : 3 651 kb/s
Nominal bit rate                         : 4 000 kb/s
Width                                    : 1 280 pixels
Height                                   : 640 pixels
Display aspect ratio                     : 2.000
Frame rate mode                          : Constant
Frame rate                               : 23.976 (24000/1001) FPS
Color space                              : YUV
Chroma subsampling                       : 4:2:0
Bit depth                                : 8 bits
Scan type                                : Progressive
Bits/(Pixel*Frame)                       : 0.186
Stream size                              : 1.52 GiB (85%)
Default                                  : Yes
Forced                                   : No
Color range                              : Limited
Color primaries                          : BT.709
Transfer characteristics                 : BT.709
Matrix coefficients                      : BT.709

Audio
ID                                       : 2
Format                                   : E-AC-3 JOC
Format/Info                              : Enhanced AC-3 with Joint Object Coding
Commercial name                          : Dolby Digital Plus with Dolby Atmos
Codec ID                                 : A_EAC3
Duration                                 : 59 min 43 s
Bit rate mode                            : Constant
Bit rate                                 : 640 kb/s
Channel(s)                               : 6 channels
Channel layout                           : L R C LFE Ls Rs
Sampling rate                            : 48.0 kHz
Frame rate                               : 31.250 FPS (1536 SPF)
Compression mode                         : Lossy
Stream size                              : 273 MiB (15%)
Language                                 : English
Service kind                             : Complete Main
Default                                  : Yes
Forced                                   : No
Complexity index                         : 16
Number of dynamic objects                : 15
Bed channel count                        : 1 channel
Bed channel configuration                : LFE

Text #1
ID                                       : 3
Format                                   : UTF-8
Codec ID                                 : S_TEXT/UTF8
Codec ID/Info                            : UTF-8 Plain Text
Duration                                 : 58 min 9 s
Bit rate                                 : 8 b/s
Frame rate                               : 0.029 FPS
Count of elements                        : 101
Stream size                              : 3.74 KiB (0%)
Language                                 : English (US)
Default                                  : No
Forced                                   : No

Text #2
ID                                       : 4
Format                                   : UTF-8
Codec ID                                 : S_TEXT/UTF8
Codec ID/Info                            : UTF-8 Plain Text
Duration                                 : 59 min 33 s
Bit rate                                 : 20 b/s
Frame rate                               : 0.099 FPS
Count of elements                        : 355
Stream size                              : 8.81 KiB (0%)
Title                                    : SDH
Language                                 : English (US)
Default                                  : No
Forced                                   : No

Text #3
ID                                       : 5
Format                                   : UTF-8
Codec ID                                 : S_TEXT/UTF8
Codec ID/Info                            : UTF-8 Plain Text
Duration                                 : 59 min 30 s
Bit rate                                 : 74 b/s
Frame rate                               : 0.149 FPS
Count of elements                        : 533
Stream size                              : 32.5 KiB (0%)
Language                                 : Bulgarian (BG)
Default                                  : No
Forced                                   : No

Text #4
ID                                       : 6
Format                                   : UTF-8
Codec ID                                 : S_TEXT/UTF8
Codec ID/Info                            : UTF-8 Plain Text
Duration                                 : 59 min 30 s
Bit rate                                 : 38 b/s
Frame rate                               : 0.139 FPS
Count of elements                        : 496
Stream size                              : 16.7 KiB (0%)
Language                                 : Czech (CZ)
Default                                  : No
Forced                                   : No

Text #5
ID                                       : 7
Format                                   : UTF-8
Codec ID                                 : S_TEXT/UTF8
Codec ID/Info                            : UTF-8 Plain Text
Duration                                 : 59 min 24 s
Bit rate                                 : 42 b/s
Frame rate                               : 0.132 FPS
Count of elements                        : 469
Stream size                              : 18.5 KiB (0%)
Language                                 : Danish (DK)
Default                                  : No
Forced                                   : No

Text #6
ID                                       : 8
Format                                   : UTF-8
Codec ID                                 : S_TEXT/UTF8
Codec ID/Info                            : UTF-8 Plain Text
Duration                                 : 59 min 15 s
Bit rate                                 : 46 b/s
Frame rate                               : 0.165 FPS
Count of elements                        : 587
Stream size                              : 20.2 KiB (0%)
Title                                    : Spanish (Latin America)
Language                                 : Spanish (Latin America)
Default                                  : No
Forced                                   : No

Text #7
ID                                       : 9
Format                                   : UTF-8
Codec ID                                 : S_TEXT/UTF8
Codec ID/Info                            : UTF-8 Plain Text
Duration                                 : 59 min 17 s
Bit rate                                 : 44 b/s
Frame rate                               : 0.153 FPS
Count of elements                        : 545
Stream size                              : 19.3 KiB (0%)
Title                                    : Spanish (Spain)
Language                                 : Spanish (ES)
Default                                  : No
Forced                                   : No

Text #8
ID                                       : 10
Format                                   : UTF-8
Codec ID                                 : S_TEXT/UTF8
Codec ID/Info                            : UTF-8 Plain Text
Duration                                 : 59 min 24 s
Bit rate                                 : 37 b/s
Frame rate                               : 0.144 FPS
Count of elements                        : 513
Stream size                              : 16.4 KiB (0%)
Language                                 : Estonian (EE)
Default                                  : No
Forced                                   : No

Text #9
ID                                       : 11
Format                                   : UTF-8
Codec ID                                 : S_TEXT/UTF8
Codec ID/Info                            : UTF-8 Plain Text
Duration                                 : 59 min 24 s
Bit rate                                 : 44 b/s
Frame rate                               : 0.144 FPS
Count of elements                        : 512
Stream size                              : 19.4 KiB (0%)
Language                                 : Finnish (FI)
Default                                  : No
Forced                                   : No

Text #10
ID                                       : 12
Format                                   : UTF-8
Codec ID                                 : S_TEXT/UTF8
Codec ID/Info                            : UTF-8 Plain Text
Duration                                 : 57 min 25 s
Bit rate                                 : 42 b/s
Frame rate                               : 0.177 FPS
Count of elements                        : 611
Stream size                              : 18.0 KiB (0%)
Language                                 : French (FR)
Default                                  : No
Forced                                   : No

Text #11
ID                                       : 13
Format                                   : UTF-8
Codec ID                                 : S_TEXT/UTF8
Codec ID/Info                            : UTF-8 Plain Text
Duration                                 : 59 min 30 s
Bit rate                                 : 37 b/s
Frame rate                               : 0.144 FPS
Count of elements                        : 515
Stream size                              : 16.2 KiB (0%)
Language                                 : Croatian (HR)
Default                                  : No
Forced                                   : No

Text #12
ID                                       : 14
Format                                   : UTF-8
Codec ID                                 : S_TEXT/UTF8
Codec ID/Info                            : UTF-8 Plain Text
Duration                                 : 59 min 30 s
Bit rate                                 : 42 b/s
Frame rate                               : 0.145 FPS
Count of elements                        : 517
Stream size                              : 18.4 KiB (0%)
Language                                 : Hungarian (HU)
Default                                  : No
Forced                                   : No

Text #13
ID                                       : 15
Format                                   : UTF-8
Codec ID                                 : S_TEXT/UTF8
Codec ID/Info                            : UTF-8 Plain Text
Duration                                 : 59 min 24 s
Bit rate                                 : 40 b/s
Frame rate                               : 0.144 FPS
Count of elements                        : 514
Stream size                              : 17.8 KiB (0%)
Language                                 : Lithuanian (LT)
Default                                  : No
Forced                                   : No

Text #14
ID                                       : 16
Format                                   : UTF-8
Codec ID                                 : S_TEXT/UTF8
Codec ID/Info                            : UTF-8 Plain Text
Duration                                 : 59 min 24 s
Bit rate                                 : 46 b/s
Frame rate                               : 0.145 FPS
Count of elements                        : 516
Stream size                              : 20.2 KiB (0%)
Language                                 : Latvian (LV)
Default                                  : No
Forced                                   : No

Text #15
ID                                       : 17
Format                                   : UTF-8
Codec ID                                 : S_TEXT/UTF8
Codec ID/Info                            : UTF-8 Plain Text
Duration                                 : 59 min 30 s
Bit rate                                 : 73 b/s
Frame rate                               : 0.145 FPS
Count of elements                        : 518
Stream size                              : 32.0 KiB (0%)
Language                                 : Macedonian (MK)
Default                                  : No
Forced                                   : No

Text #16
ID                                       : 18
Format                                   : UTF-8
Codec ID                                 : S_TEXT/UTF8
Codec ID/Info                            : UTF-8 Plain Text
Duration                                 : 59 min 24 s
Bit rate                                 : 42 b/s
Frame rate                               : 0.137 FPS
Count of elements                        : 490
Stream size                              : 18.7 KiB (0%)
Language                                 : Dutch (NL)
Default                                  : No
Forced                                   : No

Text #17
ID                                       : 19
Format                                   : UTF-8
Codec ID                                 : S_TEXT/UTF8
Codec ID/Info                            : UTF-8 Plain Text
Duration                                 : 59 min 24 s
Bit rate                                 : 40 b/s
Frame rate                               : 0.108 FPS
Count of elements                        : 385
Stream size                              : 17.8 KiB (0%)
Language                                 : Norwegian (NO)
Default                                  : No
Forced                                   : No

Text #18
ID                                       : 20
Format                                   : UTF-8
Codec ID                                 : S_TEXT/UTF8
Codec ID/Info                            : UTF-8 Plain Text
Duration                                 : 59 min 30 s
Bit rate                                 : 36 b/s
Frame rate                               : 0.145 FPS
Count of elements                        : 516
Stream size                              : 16.0 KiB (0%)
Language                                 : Polish (PL)
Default                                  : No
Forced                                   : No

Text #19
ID                                       : 21
Format                                   : UTF-8
Codec ID                                 : S_TEXT/UTF8
Codec ID/Info                            : UTF-8 Plain Text
Duration                                 : 59 min 15 s
Bit rate                                 : 45 b/s
Frame rate                               : 0.164 FPS
Count of elements                        : 584
Stream size                              : 19.5 KiB (0%)
Title                                    : Portuguese (Brazil)
Language                                 : Portuguese (BR)
Default                                  : No
Forced                                   : No

Text #20
ID                                       : 22
Format                                   : UTF-8
Codec ID                                 : S_TEXT/UTF8
Codec ID/Info                            : UTF-8 Plain Text
Duration                                 : 59 min 24 s
Bit rate                                 : 45 b/s
Frame rate                               : 0.148 FPS
Count of elements                        : 526
Stream size                              : 19.9 KiB (0%)
Title                                    : Portuguese (Portugal)
Language                                 : Portuguese (PT)
Default                                  : No
Forced                                   : No

Text #21
ID                                       : 23
Format                                   : UTF-8
Codec ID                                 : S_TEXT/UTF8
Codec ID/Info                            : UTF-8 Plain Text
Duration                                 : 59 min 30 s
Bit rate                                 : 44 b/s
Frame rate                               : 0.143 FPS
Count of elements                        : 511
Stream size                              : 19.5 KiB (0%)
Language                                 : Romanian (RO)
Default                                  : No
Forced                                   : No

Text #22
ID                                       : 24
Format                                   : UTF-8
Codec ID                                 : S_TEXT/UTF8
Codec ID/Info                            : UTF-8 Plain Text
Duration                                 : 59 min 24 s
Bit rate                                 : 41 b/s
Frame rate                               : 0.144 FPS
Count of elements                        : 515
Stream size                              : 18.1 KiB (0%)
Language                                 : Slovak (SK)
Default                                  : No
Forced                                   : No

Text #23
ID                                       : 25
Format                                   : UTF-8
Codec ID                                 : S_TEXT/UTF8
Codec ID/Info                            : UTF-8 Plain Text
Duration                                 : 59 min 30 s
Bit rate                                 : 38 b/s
Frame rate                               : 0.143 FPS
Count of elements                        : 510
Stream size                              : 16.9 KiB (0%)
Language                                 : Slovenian (SI)
Default                                  : No
Forced                                   : No

Text #24
ID                                       : 26
Format                                   : UTF-8
Codec ID                                 : S_TEXT/UTF8
Codec ID/Info                            : UTF-8 Plain Text
Duration                                 : 59 min 30 s
Bit rate                                 : 40 b/s
Frame rate                               : 0.146 FPS
Count of elements                        : 520
Stream size                              : 17.8 KiB (0%)
Language                                 : Serbian-Latn-RS
Default                                  : No
Forced                                   : No

Text #25
ID                                       : 27
Format                                   : UTF-8
Codec ID                                 : S_TEXT/UTF8
Codec ID/Info                            : UTF-8 Plain Text
Duration                                 : 59 min 24 s
Bit rate                                 : 41 b/s
Frame rate                               : 0.121 FPS
Count of elements                        : 431
Stream size                              : 18.0 KiB (0%)
Language                                 : Swedish (SE)
Default                                  : No
Forced                                   : No

Menu
00:00:00.000                             : en:Chapter 1
00:00:06.052                             : en:Intro
00:00:15.520                             : en:Chapter 2
00:10:00.354                             : en:Chapter 3
00:22:00.823                             : en:Chapter 4
00:33:22.129                             : en:Chapter 5
00:43:47.671                             : en:Chapter 6
00:52:08.504                             : en:Chapter 7
00:57:27.072                             : en:Credits



Download
File Container: MKV
Video/Audio Codec: H264 (HIGH) EAC3
Video Resolution: 1280x640

2 Responses to "[RR/CU] The Sympathizer S01E07 Endings Are Hard Arent They 720p AMZN WEB-DL DDP5 1 H 264-NTb (1.8GB)"
05/27/24
05:26:54
ReadyPlayerOne

Thank You

05/27/24
05:58:31
neexyy

The Sympathizer S01E07 Endings Are Hard Arent They 1080p AMZN WEB-DL DDP5 1 H 264-NTb
4.11 GB
================================================================
https://rapidgator.net/file/9b8f95accf3a389f349cffbe5cd99c35
https://rapidgator.net/file/373c826090e8a3e46a965e0608fe0fb7
https://rapidgator.net/file/ce2d4cf1610cd1d87de17c284be6c3e2
https://rapidgator.net/file/34d221263a1a137934ad0e7efde92d39
https://rapidgator.net/file/46a48a83375cf7ac8d699e2638bf5a83

https://nitroflare.com/view/374CEFF43AC7DCF/The.Sympathizer.S01E07.1080p.AMZN.WEB-DL.DDP5.1.H.264-NTb.part1.rar
https://nitroflare.com/view/5345CDA5B0F59E5/The.Sympathizer.S01E07.1080p.AMZN.WEB-DL.DDP5.1.H.264-NTb.part2.rar
https://nitroflare.com/view/080A8E0ADA3CC84/The.Sympathizer.S01E07.1080p.AMZN.WEB-DL.DDP5.1.H.264-NTb.part3.rar
https://nitroflare.com/view/7A953948BEE272F/The.Sympathizer.S01E07.1080p.AMZN.WEB-DL.DDP5.1.H.264-NTb.part4.rar
https://nitroflare.com/view/5B126B50315C0DB/The.Sympathizer.S01E07.1080p.AMZN.WEB-DL.DDP5.1.H.264-NTb.part5.rar

https://clicknupload.space/1qx609y03rrf
https://clicknupload.space/3taf9igr82sf
https://clicknupload.space/opsvehnpsxhx
https://clicknupload.space/ei7xjhw7085e
https://clicknupload.space/rf9g9v8kpp3j

================

The Sympathizer S01E07 Endings Are Hard Arent They 1080p REPACK HMAX WEB-DL DDP5 1 x264-NTb
3.7 GB
====================================================================
https://rapidgator.net/file/bb73cd07386e4e6c9d79347a7a037e16

https://nitroflare.com/view/5E9CFE0E9942FFE/The_Sympathizer_S01E07_Endings_Are_Hard_Arent_They_1080p_REPACK_HMAX_WEB-DL_DDP5_1_x264-NTb.mkv

https://clicknupload.space/9o38y1wv7rjf

The Sympathizer S01E07 Endings Are Hard Arent They 720p AMZN WEB-DL DDP5 1 H 264-NTb
1.79 GB
===============================================================
https://rapidgator.net/file/66d8855d10ac9c9b1791877f965880e5

https://nitroflare.com/view/4207F8E62EE686A/The_Sympathizer_S01E07_Endings_Are_Hard_Arent_They_720p_AMZN_WEB-DL_DDP5_1_H_264-NTb.mkv

https://clicknupload.space/edv4bx5qz0nv

Please Login to post a comment.
If you don't have any account, please Register.
  • Subscribe my Feeds
  • Facebook
Encoding Queue:  x264  x265

Latest Episodes

Popular Movies and TV Shows

  • IF
  • Below Deck Mediterranean
  • The Bold and the Beautiful
  • Tires
  • Handling the Undead
  • One More Shot
  • Camp Snoopy
  • Quintessentially Irish
  • Agents of Mystery
  • Challenge of the Tiger
  • Dinner Time Live with David Chang
  • Hack Your Health: The Secrets of Your Gut
  • NCIS
  • House of the Dragon
  • Star Trek: Discovery
  • I Used to Be Funny
  • We Grown Now
  • The Ministry of Ungentlemanly Warfare
  • WWE Raw
  • The Acolyte
  • Walker
  • Inside Out 2
  • Patriots Day
  • The Flesh
  • The Daily Show

Recent Comments

Archives