Sign Up   |   Sign In  
Mayor of KingstownBilly the Kid90 Day Fiancé: Happily Ever After?R.I.P.D.RatatouilleRaya and the Last DragonLove IslandLicence to KillLook to the LightKung Fu HustleDoctor ClimaxTeen Mom: The Next ChapterThe Bold and the BeautifulThe Loud HouseWelcome to WrexhamThere's Something About MaryVice News Presents: Mass Shooting AmericaHit ManWWE NXTCatfish: The TV ShowWalkerEnter the Clones of BruceImmaculateInside Out 2The Daily Show

Announcements

05/28

2024

1

Comments

The Veil 2024 S01E06 The Cottage 720p DSNP WEB-DL DDP5 1 H 264-FLUX
[RR/NF/CU]
Size: 1.5GB mkv H264 (HIGH) / EAC3  HD  1280x720

The Veil
File Information
[img]http://lookpic.com/cdn/i2/t/0528202412285236-1.jpg[/img]
[img]http://lookpic.com/cdn/i2/t/0528202412285236-2.jpg[/img]
[img]http://lookpic.com/cdn/i2/t/0528202412285236-3.jpg[/img]

General
Unique ID                                : 152431992914127157218486504856163331926 (0x72AD557EA35A79D93E55B7520F662F56)
Complete name                            : The Veil 2024 S01E06 The Cottage 720p DSNP WEB-DL DDP5 1 H 264-FLUX.mkv
Format                                   : Matroska
Format version                           : Version 4
File size                                : 1.46 GiB
Duration                                 : 1 h 7 min
Overall bit rate mode                    : Variable
Overall bit rate                         : 3 099 kb/s
Frame rate                               : 23.976 FPS
Writing application                      : mkvmerge v84.0 ('Sleeper') 64-bit
Writing library                          : libebml v1.4.5 + libmatroska v1.7.1

Video
ID                                       : 1
Format                                   : AVC
Format/Info                              : Advanced Video Codec
Format profile                           : High@L3.1
Format settings                          : CABAC / 4 Ref Frames
Format settings, CABAC                   : Yes
Format settings, Reference frames        : 4 frames
Codec ID                                 : V_MPEG4/ISO/AVC
Duration                                 : 1 h 7 min
Bit rate mode                            : Variable
Bit rate                                 : 2 839 kb/s
Maximum bit rate                         : 6 375 kb/s
Width                                    : 1 280 pixels
Height                                   : 720 pixels
Display aspect ratio                     : 16:9
Frame rate mode                          : Constant
Frame rate                               : 23.976 (24000/1001) FPS
Color space                              : YUV
Chroma subsampling                       : 4:2:0
Bit depth                                : 8 bits
Scan type                                : Progressive
Bits/(Pixel*Frame)                       : 0.128
Time code of first frame                 : 00:00:00:0000000000
Stream size                              : 1.34 GiB (92%)
Language                                 : English
Default                                  : Yes
Forced                                   : No
Color range                              : Limited
Color primaries                          : BT.709
Transfer characteristics                 : BT.709
Matrix coefficients                      : BT.709

Audio
ID                                       : 2
Format                                   : E-AC-3
Format/Info                              : Enhanced AC-3
Commercial name                          : Dolby Digital Plus
Codec ID                                 : A_EAC3
Duration                                 : 1 h 7 min
Bit rate mode                            : Constant
Bit rate                                 : 256 kb/s
Channel(s)                               : 6 channels
Channel layout                           : L R C LFE Ls Rs
Sampling rate                            : 48.0 kHz
Frame rate                               : 31.250 FPS (1536 SPF)
Compression mode                         : Lossy
Stream size                              : 123 MiB (8%)
Language                                 : English
Service kind                             : Complete Main
Default                                  : Yes
Forced                                   : No

Text #1
ID                                       : 3
Format                                   : UTF-8
Codec ID                                 : S_TEXT/UTF8
Codec ID/Info                            : UTF-8 Plain Text
Duration                                 : 7 min 40 s
Bit rate                                 : 14 b/s
Frame rate                               : 0.048 FPS
Count of elements                        : 22
Stream size                              : 808 Bytes (0%)
Title                                    : Forced
Language                                 : English
Default                                  : Yes
Forced                                   : Yes

Text #2
ID                                       : 4
Format                                   : UTF-8
Codec ID                                 : S_TEXT/UTF8
Codec ID/Info                            : UTF-8 Plain Text
Duration                                 : 1 h 5 min
Bit rate                                 : 35 b/s
Frame rate                               : 0.136 FPS
Count of elements                        : 536
Stream size                              : 17.1 KiB (0%)
Language                                 : English
Default                                  : No
Forced                                   : No

Text #3
ID                                       : 5
Format                                   : UTF-8
Codec ID                                 : S_TEXT/UTF8
Codec ID/Info                            : UTF-8 Plain Text
Duration                                 : 1 h 5 min
Bit rate                                 : 39 b/s
Frame rate                               : 0.153 FPS
Count of elements                        : 603
Stream size                              : 18.8 KiB (0%)
Title                                    : SDH
Language                                 : English
Default                                  : No
Forced                                   : No

Text #4
ID                                       : 6
Format                                   : UTF-8
Codec ID                                 : S_TEXT/UTF8
Codec ID/Info                            : UTF-8 Plain Text
Duration                                 : 1 h 6 min
Bit rate                                 : 31 b/s
Frame rate                               : 0.125 FPS
Count of elements                        : 502
Stream size                              : 15.3 KiB (0%)
Language                                 : Czech
Default                                  : No
Forced                                   : No

Text #5
ID                                       : 7
Format                                   : UTF-8
Codec ID                                 : S_TEXT/UTF8
Codec ID/Info                            : UTF-8 Plain Text
Duration                                 : 1 h 6 min
Bit rate                                 : 32 b/s
Frame rate                               : 0.121 FPS
Count of elements                        : 485
Stream size                              : 16.0 KiB (0%)
Language                                 : Danish
Default                                  : No
Forced                                   : No

Text #6
ID                                       : 8
Format                                   : UTF-8
Codec ID                                 : S_TEXT/UTF8
Codec ID/Info                            : UTF-8 Plain Text
Duration                                 : 1 h 6 min
Bit rate                                 : 35 b/s
Frame rate                               : 0.126 FPS
Count of elements                        : 505
Stream size                              : 17.4 KiB (0%)
Language                                 : German
Default                                  : No
Forced                                   : No

Text #7
ID                                       : 9
Format                                   : UTF-8
Codec ID                                 : S_TEXT/UTF8
Codec ID/Info                            : UTF-8 Plain Text
Duration                                 : 1 h 6 min
Bit rate                                 : 55 b/s
Frame rate                               : 0.132 FPS
Count of elements                        : 531
Stream size                              : 27.3 KiB (0%)
Language                                 : Greek
Default                                  : No
Forced                                   : No

Text #8
ID                                       : 10
Format                                   : UTF-8
Codec ID                                 : S_TEXT/UTF8
Codec ID/Info                            : UTF-8 Plain Text
Duration                                 : 1 h 6 min
Bit rate                                 : 31 b/s
Frame rate                               : 0.125 FPS
Count of elements                        : 503
Stream size                              : 15.6 KiB (0%)
Title                                    : Latin American
Language                                 : Spanish (Latin America)
Default                                  : No
Forced                                   : No

Text #9
ID                                       : 11
Format                                   : UTF-8
Codec ID                                 : S_TEXT/UTF8
Codec ID/Info                            : UTF-8 Plain Text
Duration                                 : 1 h 6 min
Bit rate                                 : 32 b/s
Frame rate                               : 0.132 FPS
Count of elements                        : 529
Stream size                              : 15.8 KiB (0%)
Language                                 : Spanish (ES)
Default                                  : No
Forced                                   : No

Text #10
ID                                       : 12
Format                                   : UTF-8
Codec ID                                 : S_TEXT/UTF8
Codec ID/Info                            : UTF-8 Plain Text
Duration                                 : 1 h 6 min
Bit rate                                 : 33 b/s
Frame rate                               : 0.122 FPS
Count of elements                        : 490
Stream size                              : 16.6 KiB (0%)
Language                                 : Finnish
Default                                  : No
Forced                                   : No

Text #11
ID                                       : 13
Format                                   : UTF-8
Codec ID                                 : S_TEXT/UTF8
Codec ID/Info                            : UTF-8 Plain Text
Duration                                 : 1 h 6 min
Bit rate                                 : 31 b/s
Frame rate                               : 0.122 FPS
Count of elements                        : 490
Stream size                              : 15.4 KiB (0%)
Language                                 : French (FR)
Default                                  : No
Forced                                   : No

Text #12
ID                                       : 14
Format                                   : UTF-8
Codec ID                                 : S_TEXT/UTF8
Codec ID/Info                            : UTF-8 Plain Text
Duration                                 : 1 h 6 min
Bit rate                                 : 32 b/s
Frame rate                               : 0.127 FPS
Count of elements                        : 511
Stream size                              : 16.0 KiB (0%)
Language                                 : Hungarian
Default                                  : No
Forced                                   : No

Text #13
ID                                       : 15
Format                                   : UTF-8
Codec ID                                 : S_TEXT/UTF8
Codec ID/Info                            : UTF-8 Plain Text
Duration                                 : 1 h 6 min
Bit rate                                 : 32 b/s
Frame rate                               : 0.133 FPS
Count of elements                        : 534
Stream size                              : 16.1 KiB (0%)
Language                                 : Italian
Default                                  : No
Forced                                   : No

Text #14
ID                                       : 16
Format                                   : UTF-8
Codec ID                                 : S_TEXT/UTF8
Codec ID/Info                            : UTF-8 Plain Text
Duration                                 : 1 h 6 min
Bit rate                                 : 30 b/s
Frame rate                               : 0.140 FPS
Count of elements                        : 562
Stream size                              : 14.8 KiB (0%)
Language                                 : Japanese
Default                                  : No
Forced                                   : No

Text #15
ID                                       : 17
Format                                   : UTF-8
Codec ID                                 : S_TEXT/UTF8
Codec ID/Info                            : UTF-8 Plain Text
Duration                                 : 1 h 6 min
Bit rate                                 : 38 b/s
Frame rate                               : 0.136 FPS
Count of elements                        : 546
Stream size                              : 18.7 KiB (0%)
Language                                 : Korean
Default                                  : No
Forced                                   : No

Text #16
ID                                       : 18
Format                                   : UTF-8
Codec ID                                 : S_TEXT/UTF8
Codec ID/Info                            : UTF-8 Plain Text
Duration                                 : 1 h 6 min
Bit rate                                 : 29 b/s
Frame rate                               : 0.110 FPS
Count of elements                        : 442
Stream size                              : 14.6 KiB (0%)
Language                                 : Dutch
Default                                  : No
Forced                                   : No

Text #17
ID                                       : 19
Format                                   : UTF-8
Codec ID                                 : S_TEXT/UTF8
Codec ID/Info                            : UTF-8 Plain Text
Duration                                 : 1 h 6 min
Bit rate                                 : 31 b/s
Frame rate                               : 0.124 FPS
Count of elements                        : 496
Stream size                              : 15.2 KiB (0%)
Language                                 : Norwegian
Default                                  : No
Forced                                   : No

Text #18
ID                                       : 20
Format                                   : UTF-8
Codec ID                                 : S_TEXT/UTF8
Codec ID/Info                            : UTF-8 Plain Text
Duration                                 : 1 h 6 min
Bit rate                                 : 30 b/s
Frame rate                               : 0.130 FPS
Count of elements                        : 522
Stream size                              : 14.9 KiB (0%)
Language                                 : Polish
Default                                  : No
Forced                                   : No

Text #19
ID                                       : 21
Format                                   : UTF-8
Codec ID                                 : S_TEXT/UTF8
Codec ID/Info                            : UTF-8 Plain Text
Duration                                 : 1 h 6 min
Bit rate                                 : 31 b/s
Frame rate                               : 0.132 FPS
Count of elements                        : 530
Stream size                              : 15.6 KiB (0%)
Title                                    : Brazilian
Language                                 : Portuguese (BR)
Default                                  : No
Forced                                   : No

Text #20
ID                                       : 22
Format                                   : UTF-8
Codec ID                                 : S_TEXT/UTF8
Codec ID/Info                            : UTF-8 Plain Text
Duration                                 : 1 h 6 min
Bit rate                                 : 33 b/s
Frame rate                               : 0.131 FPS
Count of elements                        : 526
Stream size                              : 16.7 KiB (0%)
Language                                 : Portuguese (PT)
Default                                  : No
Forced                                   : No

Text #21
ID                                       : 23
Format                                   : UTF-8
Codec ID                                 : S_TEXT/UTF8
Codec ID/Info                            : UTF-8 Plain Text
Duration                                 : 1 h 6 min
Bit rate                                 : 31 b/s
Frame rate                               : 0.113 FPS
Count of elements                        : 454
Stream size                              : 15.5 KiB (0%)
Language                                 : Romanian
Default                                  : No
Forced                                   : No

Text #22
ID                                       : 24
Format                                   : UTF-8
Codec ID                                 : S_TEXT/UTF8
Codec ID/Info                            : UTF-8 Plain Text
Duration                                 : 1 h 6 min
Bit rate                                 : 31 b/s
Frame rate                               : 0.132 FPS
Count of elements                        : 531
Stream size                              : 15.4 KiB (0%)
Language                                 : Slovak
Default                                  : No
Forced                                   : No

Text #23
ID                                       : 25
Format                                   : UTF-8
Codec ID                                 : S_TEXT/UTF8
Codec ID/Info                            : UTF-8 Plain Text
Duration                                 : 1 h 6 min
Bit rate                                 : 31 b/s
Frame rate                               : 0.116 FPS
Count of elements                        : 466
Stream size                              : 15.5 KiB (0%)
Language                                 : Swedish
Default                                  : No
Forced                                   : No

Text #24
ID                                       : 26
Format                                   : UTF-8
Codec ID                                 : S_TEXT/UTF8
Codec ID/Info                            : UTF-8 Plain Text
Duration                                 : 1 h 6 min
Bit rate                                 : 34 b/s
Frame rate                               : 0.130 FPS
Count of elements                        : 524
Stream size                              : 16.9 KiB (0%)
Language                                 : Turkish
Default                                  : No
Forced                                   : No

Text #25
ID                                       : 27
Format                                   : UTF-8
Codec ID                                 : S_TEXT/UTF8
Codec ID/Info                            : UTF-8 Plain Text
Duration                                 : 1 h 6 min
Bit rate                                 : 32 b/s
Frame rate                               : 0.136 FPS
Count of elements                        : 546
Stream size                              : 15.7 KiB (0%)
Title                                    : Traditional
Language                                 : Chinese (Traditional)
Default                                  : No
Forced                                   : No

Menu
00:00:09.718                             : en:Recap
00:01:56.450                             : en:Scene 1
00:05:39.089                             : en:Intro
00:05:47.431                             : en:Scene 2
01:06:05.966                             : en:Credits



Download
File Container: MKV
Video/Audio Codec: H264 (HIGH) EAC3
Video Resolution: 1280x720

1 Response to "[RR/NF/CU] The Veil 2024 S01E06 The Cottage 720p DSNP WEB-DL DDP5 1 H 264-FLUX (1.5GB)"
05/28/24
14:26:16
ReadyPlayerOne

Thank You

Please Login to post a comment.
If you don't have any account, please Register.
  • Subscribe my Feeds
  • Facebook
Encoding Queue:  x264  x265

Latest Episodes

Popular Movies and TV Shows

  • Mayor of Kingstown
  • Billy the Kid
  • 90 Day Fiancé: Happily Ever After?
  • R.I.P.D.
  • Ratatouille
  • Raya and the Last Dragon
  • Love Island
  • Licence to Kill
  • Look to the Light
  • Kung Fu Hustle
  • Doctor Climax
  • Teen Mom: The Next Chapter
  • The Bold and the Beautiful
  • The Loud House
  • Welcome to Wrexham
  • There's Something About Mary
  • Vice News Presents: Mass Shooting America
  • Hit Man
  • WWE NXT
  • Catfish: The TV Show
  • Walker
  • Enter the Clones of Bruce
  • Immaculate
  • Inside Out 2
  • The Daily Show

Recent Comments

Archives