Sign Up   |   Sign In  
Hannah Einbinder: Everything Must GoI Saw the TV GlowBratsConfessions of a Teenage FraudsterThe Big CigarThe ChosenThe Bold and the BeautifulSistasThe ChiThe EgyptianNotas sobre un veranoBad Ben 7: The Haunted HighwayWWE NXTThe BoysWalkerMower MinionsAssimilateMiddle of the NightEvilBridgertonCriminal MindsIn the Line of FireThe Artifice GirlLamp LifeThe Daily Show

Announcements

05/20

2024

1

Comments

Tracker 2024 S01E13 The Storm 1080p AMZN WEB-DL DDP5 1 H 264-NTb
[RR/NF]
Size: 4.7GB 2 CDs mkv H264 (HIGH) / EAC3  HD  1920x1080

Tracker
File Information
[img]http://lookpic.com/cdn/i2/t/0520202408222422-1.jpg[/img]
[img]http://lookpic.com/cdn/i2/t/0520202408222422-2.jpg[/img]
[img]http://lookpic.com/cdn/i2/t/0520202408222422-3.jpg[/img]

General
Unique ID                                : 2974454192812952110397143369444298353 (0x23CDBEA0885F0705BFF63D250990E71)
Complete name                            : Tracker 2024 S01E13 The Storm 1080p AMZN WEB-DL DDP5 1 H 264-NTb.mkv
Format                                   : Matroska
Format version                           : Version 4
File size                                : 2.36 GiB
Duration                                 : 43 min 3 s
Overall bit rate                         : 7 838 kb/s
Frame rate                               : 23.976 FPS
Writing application                      : mkvmerge v84.0 ('Sleeper') 64-bit
Writing library                          : libebml v1.4.5 + libmatroska v1.7.1

Video
ID                                       : 1
Format                                   : AVC
Format/Info                              : Advanced Video Codec
Format profile                           : High@L4
Format settings                          : CABAC / 4 Ref Frames
Format settings, CABAC                   : Yes
Format settings, Reference frames        : 4 frames
Codec ID                                 : V_MPEG4/ISO/AVC
Duration                                 : 43 min 3 s
Bit rate mode                            : Constant
Bit rate                                 : 7 196 kb/s
Nominal bit rate                         : 10 000 kb/s
Width                                    : 1 920 pixels
Height                                   : 1 080 pixels
Display aspect ratio                     : 16:9
Frame rate mode                          : Constant
Frame rate                               : 23.976 (24000/1001) FPS
Color space                              : YUV
Chroma subsampling                       : 4:2:0
Bit depth                                : 8 bits
Scan type                                : Progressive
Bits/(Pixel*Frame)                       : 0.145
Stream size                              : 2.16 GiB (92%)
Default                                  : Yes
Forced                                   : No
Color range                              : Limited
Color primaries                          : BT.709
Transfer characteristics                 : BT.709
Matrix coefficients                      : BT.709

Audio
ID                                       : 2
Format                                   : E-AC-3
Format/Info                              : Enhanced AC-3
Commercial name                          : Dolby Digital Plus
Codec ID                                 : A_EAC3
Duration                                 : 43 min 3 s
Bit rate mode                            : Constant
Bit rate                                 : 640 kb/s
Channel(s)                               : 6 channels
Channel layout                           : L R C LFE Ls Rs
Sampling rate                            : 48.0 kHz
Frame rate                               : 31.250 FPS (1536 SPF)
Compression mode                         : Lossy
Stream size                              : 197 MiB (8%)
Language                                 : English (US)
Service kind                             : Complete Main
Default                                  : Yes
Forced                                   : No

Text #1
ID                                       : 3
Format                                   : UTF-8
Codec ID                                 : S_TEXT/UTF8
Codec ID/Info                            : UTF-8 Plain Text
Duration                                 : 42 min 33 s
Bit rate                                 : 81 b/s
Frame rate                               : 0.336 FPS
Count of elements                        : 858
Stream size                              : 25.2 KiB (0%)
Language                                 : English (US)
Default                                  : No
Forced                                   : No

Text #2
ID                                       : 4
Format                                   : UTF-8
Codec ID                                 : S_TEXT/UTF8
Codec ID/Info                            : UTF-8 Plain Text
Duration                                 : 42 min 33 s
Bit rate                                 : 85 b/s
Frame rate                               : 0.364 FPS
Count of elements                        : 929
Stream size                              : 26.7 KiB (0%)
Title                                    : SDH
Language                                 : English (US)
Default                                  : No
Forced                                   : No



Download
File Container: MKV
Video/Audio Codec: H264 (HIGH) EAC3
Video Resolution: 1920x1080

1 Response to "[RR/NF] Tracker 2024 S01E13 The Storm 1080p AMZN WEB-DL DDP5 1 H 264-NTb (4.7GB)"
05/20/24
08:54:34
ReadyPlayerOne

Thank You

Please Login to post a comment.
If you don't have any account, please Register.
  • Subscribe my Feeds
  • Facebook
Encoding Queue:  x264  x265

Latest Episodes

Popular Movies and TV Shows

  • Hannah Einbinder: Everything Must Go
  • I Saw the TV Glow
  • Brats
  • The Big Cigar
  • The Chosen
  • The Bold and the Beautiful
  • Sistas
  • The Chi
  • The Egyptian
  • Notas sobre un verano
  • Bad Ben 7: The Haunted Highway
  • WWE NXT
  • The Boys
  • Walker
  • Mower Minions
  • Assimilate
  • Middle of the Night
  • Evil
  • Bridgerton
  • Criminal Minds
  • In the Line of Fire
  • The Artifice Girl
  • Lamp Life
  • The Daily Show

Recent Comments

Archives