Sign Up   |   Sign In  
The BoysEvilBridgertonBratsThe Artifice GirlFentasyWWE NXTWalkerCriminal MindsCabriniLamp LifeIn the Line of FireThe AcolytePresumed InnocentColin from AccountsOriginThe BraidIraq's Secret Sex TradeDark MatterFBI: Most WantedThe Big Door PrizeThe PrimevalsMysteries of the Terracotta WarriorsCamille 2000The Daily Show

Announcements

05/22

2024

1

Comments

Under the Bridge S01E07 Three and Seven 1080p DSNP WEB-DL DDP5 1 H 264-FLUX
[RR/NF/CU]
Size: 1.9GB mkv H264 (HIGH) / EAC3  HD  1920x1080

Under the Bridge
File Information
[img]http://lookpic.com/cdn/i2/t/0522202414112211-1.jpg[/img]
[img]http://lookpic.com/cdn/i2/t/0522202414112211-2.jpg[/img]
[img]http://lookpic.com/cdn/i2/t/0522202414112211-3.jpg[/img]

General
Unique ID                                : 193172722500891131954315747822436310052 (0x9153B68BC6E7289D31AF532C6C735C24)
Complete name                            : Under.the.Bridge.S01E07.Three.and.Seven.1080p.DSNP.WEB-DL.DDP5.1.H.264-FLUX.mkv
Format                                   : Matroska
Format version                           : Version 4
File size                                : 1.90 GiB
Duration                                 : 47 min 46 s
Overall bit rate mode                    : Variable
Overall bit rate                         : 5 688 kb/s
Frame rate                               : 23.976 FPS
Writing application                      : mkvmerge v83.0 ('Circle Of Friends') 64-bit
Writing library                          : libebml v1.4.5 + libmatroska v1.7.1

Video
ID                                       : 1
Format                                   : AVC
Format/Info                              : Advanced Video Codec
Format profile                           : High@L4
Format settings                          : CABAC / 4 Ref Frames
Format settings, CABAC                   : Yes
Format settings, Reference frames        : 4 frames
Codec ID                                 : V_MPEG4/ISO/AVC
Duration                                 : 47 min 46 s
Bit rate mode                            : Variable
Bit rate                                 : 5 430 kb/s
Maximum bit rate                         : 12.7 Mb/s
Width                                    : 1 920 pixels
Height                                   : 1 080 pixels
Display aspect ratio                     : 16:9
Frame rate mode                          : Constant
Frame rate                               : 23.976 (24000/1001) FPS
Color space                              : YUV
Chroma subsampling                       : 4:2:0
Bit depth                                : 8 bits
Scan type                                : Progressive
Bits/(Pixel*Frame)                       : 0.109
Time code of first frame                 : 00:00:00:0000000000
Stream size                              : 1.81 GiB (95%)
Language                                 : English
Default                                  : Yes
Forced                                   : No
Color range                              : Limited
Color primaries                          : BT.709
Transfer characteristics                 : BT.709
Matrix coefficients                      : BT.709

Audio
ID                                       : 2
Format                                   : E-AC-3
Format/Info                              : Enhanced AC-3
Commercial name                          : Dolby Digital Plus
Codec ID                                 : A_EAC3
Duration                                 : 47 min 46 s
Bit rate mode                            : Constant
Bit rate                                 : 256 kb/s
Channel(s)                               : 6 channels
Channel layout                           : L R C LFE Ls Rs
Sampling rate                            : 48.0 kHz
Frame rate                               : 31.250 FPS (1536 SPF)
Compression mode                         : Lossy
Stream size                              : 87.5 MiB (5%)
Language                                 : English
Service kind                             : Complete Main
Default                                  : Yes
Forced                                   : No

Text #1
ID                                       : 3
Format                                   : UTF-8
Codec ID                                 : S_TEXT/UTF8
Codec ID/Info                            : UTF-8 Plain Text
Duration                                 : 47 min 30 s
Bit rate                                 : 61 b/s
Frame rate                               : 0.212 FPS
Count of elements                        : 603
Stream size                              : 21.4 KiB (0%)
Language                                 : English
Default                                  : No
Forced                                   : No

Text #2
ID                                       : 4
Format                                   : UTF-8
Codec ID                                 : S_TEXT/UTF8
Codec ID/Info                            : UTF-8 Plain Text
Duration                                 : 47 min 31 s
Bit rate                                 : 72 b/s
Frame rate                               : 0.256 FPS
Count of elements                        : 731
Stream size                              : 25.1 KiB (0%)
Title                                    : SDH
Language                                 : English
Default                                  : No
Forced                                   : No

Text #3
ID                                       : 5
Format                                   : UTF-8
Codec ID                                 : S_TEXT/UTF8
Codec ID/Info                            : UTF-8 Plain Text
Duration                                 : 47 min 38 s
Bit rate                                 : 65 b/s
Frame rate                               : 0.217 FPS
Count of elements                        : 619
Stream size                              : 22.8 KiB (0%)
Title                                    : Latin American
Language                                 : Spanish (Latin America)
Default                                  : No
Forced                                   : No

Menu
00:46:46.762                             : en:Credits



Download
File Container: MKV
Video/Audio Codec: H264 (HIGH) EAC3
Video Resolution: 1920x1080

1 Response to "[RR/NF/CU] Under the Bridge S01E07 Three and Seven 1080p DSNP WEB-DL DDP5 1 H 264-FLUX (1.9GB)"
05/22/24
14:33:24
ReadyPlayerOne

Thank You

Please Login to post a comment.
If you don't have any account, please Register.
  • Subscribe my Feeds
  • Facebook
Encoding Queue:  x264  x265

Latest Episodes

Popular Movies and TV Shows

  • The Boys
  • Evil
  • Bridgerton
  • Brats
  • The Artifice Girl
  • Fentasy
  • WWE NXT
  • Walker
  • Criminal Minds
  • Cabrini
  • Lamp Life
  • In the Line of Fire
  • The Acolyte
  • Presumed Innocent
  • Colin from Accounts
  • Origin
  • The Braid
  • Dark Matter
  • FBI: Most Wanted
  • The Big Door Prize
  • The Primevals
  • Mysteries of the Terracotta Warriors
  • Camille 2000
  • The Daily Show

Recent Comments

  • mentalityx:

    Rad bloke.

  • mentalityx:

    Thx bloke.

  • Diggety247:

    BrokenHanded, Try using a DL manager.

  • BrokenHanded: clicknupload does not seem to work for past few days. keep getting an error saying the site is sendi...
  • Bud: Helps if you actually add these to the "Late Night with Seth Meyers" page too...
  • rambaldi70:

    Hy! Right now, my download speed : 1 Mb/s
    this is ok?
    Tx answer

  • Cinque_Persson: At 183 MB this had to be something completely different. In fact it's just the main actors commentin...
  • meyat74:

    my bad, should be full season

Archives