Sign Up   |   Sign In  
Star Wars: The Bad BatchX-Men '97FBI: InternationalArthur the KingThe Good DinosaurMonolithFBIFBI: Most WantedThe Big Door PrizeGods of EgyptMR-9: Do or DieDrive-Away DollsShogunMonkey ManLootPalm RoyaleAccidental TexanMy MercuryNCISNCIS: Hawai'iThe NeighborhoodDowntown OwlAftermathOne LifeTracker

Announcements

03/28

2024

No

Comments

We Were The Lucky Ones S01E01 Radom 720p DSNP WEB-DL DDP5 1 H 264-FLUX
[RR/NF/CU]
Size: 1.1GB mkv H264 (HIGH) / EAC3  HD  1280x720

We Were the Lucky Ones
File Information
[img]http://lookpic.com/cdn/i2/t/0328202406093315-1.jpg[/img]
[img]http://lookpic.com/cdn/i2/t/0328202406093315-2.jpg[/img]
[img]http://lookpic.com/cdn/i2/t/0328202406093315-3.jpg[/img]

General
Unique ID                                : 120399678366273729354723679460246621047 (0x5A9422743AB9D15AA434F27ED6270B77)
Complete name                            : We Were The Lucky Ones S01E01 Radom 720p DSNP WEB-DL DDP5 1 H 264-FLUX.mkv
Format                                   : Matroska
Format version                           : Version 4
File size                                : 1.05 GiB
Duration                                 : 53 min 40 s
Overall bit rate mode                    : Variable
Overall bit rate                         : 2 812 kb/s
Frame rate                               : 23.976 FPS
Writing application                      : mkvmerge v82.0 ('I'm The President') 64-bit
Writing library                          : libebml v1.4.5 + libmatroska v1.7.1

Video
ID                                       : 1
Format                                   : AVC
Format/Info                              : Advanced Video Codec
Format profile                           : High@L3.1
Format settings                          : CABAC / 4 Ref Frames
Format settings, CABAC                   : Yes
Format settings, Reference frames        : 4 frames
Codec ID                                 : V_MPEG4/ISO/AVC
Duration                                 : 53 min 40 s
Bit rate mode                            : Variable
Bit rate                                 : 2 554 kb/s
Maximum bit rate                         : 6 375 kb/s
Width                                    : 1 280 pixels
Height                                   : 720 pixels
Display aspect ratio                     : 16:9
Frame rate mode                          : Constant
Frame rate                               : 23.976 (24000/1001) FPS
Color space                              : YUV
Chroma subsampling                       : 4:2:0
Bit depth                                : 8 bits
Scan type                                : Progressive
Bits/(Pixel*Frame)                       : 0.116
Time code of first frame                 : 00:00:00:0000000000
Stream size                              : 980 MiB (91%)
Language                                 : English
Default                                  : Yes
Forced                                   : No
Color range                              : Limited
Color primaries                          : BT.709
Transfer characteristics                 : BT.709
Matrix coefficients                      : BT.709

Audio
ID                                       : 2
Format                                   : E-AC-3
Format/Info                              : Enhanced AC-3
Commercial name                          : Dolby Digital Plus
Codec ID                                 : A_EAC3
Duration                                 : 53 min 40 s
Bit rate mode                            : Constant
Bit rate                                 : 256 kb/s
Channel(s)                               : 6 channels
Channel layout                           : L R C LFE Ls Rs
Sampling rate                            : 48.0 kHz
Frame rate                               : 31.250 FPS (1536 SPF)
Compression mode                         : Lossy
Stream size                              : 98.3 MiB (9%)
Language                                 : English
Service kind                             : Complete Main
Default                                  : Yes
Forced                                   : No

Text #1
ID                                       : 3
Format                                   : UTF-8
Codec ID                                 : S_TEXT/UTF8
Codec ID/Info                            : UTF-8 Plain Text
Duration                                 : 52 min 44 s
Bit rate                                 : 51 b/s
Frame rate                               : 0.201 FPS
Count of elements                        : 635
Stream size                              : 19.7 KiB (0%)
Language                                 : English
Default                                  : No
Forced                                   : No

Text #2
ID                                       : 4
Format                                   : UTF-8
Codec ID                                 : S_TEXT/UTF8
Codec ID/Info                            : UTF-8 Plain Text
Duration                                 : 53 min 27 s
Bit rate                                 : 63 b/s
Frame rate                               : 0.258 FPS
Count of elements                        : 829
Stream size                              : 24.9 KiB (0%)
Title                                    : SDH
Language                                 : English
Default                                  : No
Forced                                   : No

Text #3
ID                                       : 5
Format                                   : UTF-8
Codec ID                                 : S_TEXT/UTF8
Codec ID/Info                            : UTF-8 Plain Text
Duration                                 : 53 min 26 s
Bit rate                                 : 54 b/s
Frame rate                               : 0.206 FPS
Count of elements                        : 660
Stream size                              : 21.2 KiB (0%)
Title                                    : Latin American
Language                                 : Spanish (Latin America)
Default                                  : No
Forced                                   : No



Download
File Container: MKV
Video/Audio Codec: H264 (HIGH) EAC3
Video Resolution: 1280x720
Please Login to post a comment.
If you don't have any account, please Register.
  • Subscribe my Feeds
  • Facebook
Encoding Queue:  x264  x265

Latest Episodes

Popular Movies and TV Shows

  • Star Wars: The Bad Batch
  • X-Men '97
  • FBI: International
  • Arthur the King
  • The Good Dinosaur
  • Monolith
  • FBI
  • FBI: Most Wanted
  • The Big Door Prize
  • Gods of Egypt
  • MR-9: Do or Die
  • Drive-Away Dolls
  • Shogun
  • Monkey Man
  • Loot
  • Palm Royale
  • Accidental Texan
  • My Mercury
  • NCIS
  • NCIS: Hawai'i
  • The Neighborhood
  • Downtown Owl
  • Aftermath
  • One Life
  • Tracker

Recent Comments

  • Oscar2:

    Sorry, NITROFLARE links are dead, should've checked them first

    RAPIDGATOR links are OK

  • ReadyPlayerOne:

    THANK YOU

  • ReadyPlayerOne:

    THANK YOU

  • ReadyPlayerOne:

    THANK YOU

  • mentalityx:

    Thx dude.

  • 89M:

    NitroFlare's link is missing !!!
    Clicknupload's link is missing !!!

  • V4ND4L: May we get a ClicknUpload link for this, please. It's conspicuously missing for the team/size.
  • Bud:

    The file's half the size it should be & corrupted. Useless. Avoid.

  • mentalityx:

    Rad dude

  • mentalityx:

    Rad mate

  • waanaabe:

    I tried this file with 3 different players which all said they couldn't read the codec

  • Rosa: hi i have a question,this file size is 198mb,but on clickenupload is only 118mb is it right? what ha...
  • mike1204:

    Any reason why this episode is omitted from 'click'n'upload??

  • kellym2: I appreciate all the hard work the team does BUT there is no point in my paying for a Premium subscr...

Archives