Sign Up   |   Sign In  
The Many Lives of Martha StewartInside No. 9RebusHidden CityShe Is ConannNähtamatu võitlusDoctor WhoYatagarasu: The Raven Does Not Choose Its MasterS.W.A.T.One LifeEasy RiderImaginaryYoung SheldonBlue BloodsFire CountryChallengers12.12: The DayAdagioSugarStar Trek: DiscoveryGrey's AnatomyGodzilla x Kong: The New EmpireMothers' InstinctThe DreamersOuter Range

Announcements

04/18

2024

1

Comments

We Were The Lucky Ones S01E06 Warsaw 1080p DSNP WEB-DL DDP5 1 H 264-FLUX
[RR/NF]
Size: 2.3GB mkv H264 (HIGH) / EAC3  HD  1920x1080

We Were the Lucky Ones
File Information
[img]http://lookpic.com/cdn/i2/t/0418202408135457-1.jpg[/img]
[img]http://lookpic.com/cdn/i2/t/0418202408135457-2.jpg[/img]
[img]http://lookpic.com/cdn/i2/t/0418202408135457-3.jpg[/img]

General
Unique ID                                : 216901467211248575780698724355328606495 (0xA32DB3FC49DB0B565B2E33566156811F)
Complete name                            : We Were The Lucky Ones S01E06 Warsaw 1080p DSNP WEB-DL DDP5 1 H 264-FLUX.mkv
Format                                   : Matroska
Format version                           : Version 4
File size                                : 2.27 GiB
Duration                                 : 55 min 6 s
Overall bit rate mode                    : Variable
Overall bit rate                         : 5 906 kb/s
Frame rate                               : 23.976 FPS
Writing application                      : mkvmerge v83.0 ('Circle Of Friends') 64-bit
Writing library                          : libebml v1.4.5 + libmatroska v1.7.1

Video
ID                                       : 1
Format                                   : AVC
Format/Info                              : Advanced Video Codec
Format profile                           : High@L4
Format settings                          : CABAC / 4 Ref Frames
Format settings, CABAC                   : Yes
Format settings, Reference frames        : 4 frames
Codec ID                                 : V_MPEG4/ISO/AVC
Duration                                 : 55 min 6 s
Bit rate mode                            : Variable
Bit rate                                 : 5 648 kb/s
Maximum bit rate                         : 12.7 Mb/s
Width                                    : 1 920 pixels
Height                                   : 1 080 pixels
Display aspect ratio                     : 16:9
Frame rate mode                          : Constant
Frame rate                               : 23.976 (24000/1001) FPS
Color space                              : YUV
Chroma subsampling                       : 4:2:0
Bit depth                                : 8 bits
Scan type                                : Progressive
Bits/(Pixel*Frame)                       : 0.114
Time code of first frame                 : 00:00:00:0000000000
Stream size                              : 2.17 GiB (96%)
Language                                 : English
Default                                  : Yes
Forced                                   : No
Color range                              : Limited
Color primaries                          : BT.709
Transfer characteristics                 : BT.709
Matrix coefficients                      : BT.709

Audio
ID                                       : 2
Format                                   : E-AC-3
Format/Info                              : Enhanced AC-3
Commercial name                          : Dolby Digital Plus
Codec ID                                 : A_EAC3
Duration                                 : 55 min 6 s
Bit rate mode                            : Constant
Bit rate                                 : 256 kb/s
Channel(s)                               : 6 channels
Channel layout                           : L R C LFE Ls Rs
Sampling rate                            : 48.0 kHz
Frame rate                               : 31.250 FPS (1536 SPF)
Compression mode                         : Lossy
Stream size                              : 101 MiB (4%)
Language                                 : English
Service kind                             : Complete Main
Default                                  : Yes
Forced                                   : No

Text #1
ID                                       : 3
Format                                   : UTF-8
Codec ID                                 : S_TEXT/UTF8
Codec ID/Info                            : UTF-8 Plain Text
Duration                                 : 53 min 25 s
Bit rate                                 : 46 b/s
Frame rate                               : 0.167 FPS
Count of elements                        : 534
Stream size                              : 18.2 KiB (0%)
Language                                 : English
Default                                  : No
Forced                                   : No

Text #2
ID                                       : 4
Format                                   : UTF-8
Codec ID                                 : S_TEXT/UTF8
Codec ID/Info                            : UTF-8 Plain Text
Duration                                 : 55 min 1 s
Bit rate                                 : 56 b/s
Frame rate                               : 0.214 FPS
Count of elements                        : 707
Stream size                              : 22.8 KiB (0%)
Title                                    : SDH
Language                                 : English
Default                                  : No
Forced                                   : No

Text #3
ID                                       : 5
Format                                   : UTF-8
Codec ID                                 : S_TEXT/UTF8
Codec ID/Info                            : UTF-8 Plain Text
Duration                                 : 54 min 52 s
Bit rate                                 : 48 b/s
Frame rate                               : 0.175 FPS
Count of elements                        : 575
Stream size                              : 19.7 KiB (0%)
Title                                    : Latin American
Language                                 : Spanish (Latin America)
Default                                  : No
Forced                                   : No

Menu
00:54:05.951                             : en:Credits



Download
File Container: MKV
Video/Audio Codec: H264 (HIGH) EAC3
Video Resolution: 1920x1080

1 Response to "[RR/NF] We Were The Lucky Ones S01E06 Warsaw 1080p DSNP WEB-DL DDP5 1 H 264-FLUX (2.3GB)"
04/18/24
13:15:05
ReadyPlayerOne

Thank You

Please Login to post a comment.
If you don't have any account, please Register.
  • Subscribe my Feeds
  • Facebook
Encoding Queue:  x264  x265

Latest Episodes

Popular Movies and TV Shows

  • The Many Lives of Martha Stewart
  • Inside No. 9
  • Rebus
  • Hidden City
  • She Is Conann
  • Nähtamatu võitlus
  • Doctor Who
  • Yatagarasu: The Raven Does Not Choose Its Master
  • S.W.A.T.
  • One Life
  • Easy Rider
  • Imaginary
  • Young Sheldon
  • Blue Bloods
  • Fire Country
  • Challengers
  • 12.12: The Day
  • Adagio
  • Sugar
  • Star Trek: Discovery
  • Grey's Anatomy
  • Godzilla x Kong: The New Empire
  • Mothers' Instinct
  • The Dreamers
  • Outer Range

Recent Comments

  • 23d1:

    not episode 4 it is episode 3

  • 23d1:

    not episode 4 it is episode 3

  • 23d1:

    not episode 4 it is episode 3

  • 23d1:

    not episode 4 it is episode 3

  • aaroz88:

    Trimas!!

  • mptoo: I don't often ask this, infact this would be the first time, but I don't suppose there is any chance...
  • Cinque_Persson:

    btw:
    quote /quote
    is broken

  • gabrielsyme:

    Sorry but where is the clicknupload link?

  • mike1204:

    Is this episode doomed??? The RMX avi version is only 12 minutes long!!!

  • waanaabe:

    Could PUSHING DAISES kindly be upoaded to CU? THANKS!

  • mentalityx:

    Thx bloke.

Archives