Sign Up   |   Sign In  
WWE Smackdown!The AbyssCreed IIIArgylleBeyond ParadiseLaw & Order: Organized CrimeLaw & Order Toronto: Criminal IntentYoung SheldonMan on FireThe UntouchablesThe Greatest HitsFalloutDamagedSugarLaRoy, TexasFranklinFour Souls of CoyoteElsbethA Gentleman in MoscowGhostsParachute10 LivesUntitled Woody WoodpeckerStar Trek: DiscoveryFBI

Announcements

03/31

2024

No

Comments

Welcome to the Wayne S02E10 Whoever Controls the Wayne Controls the World 1080p AMZN WEB-DL DD2 0 H 264-NTb
[RR/NF/CU]
Size: 694MB mkv H264 (HIGH) / EAC3  HD  1920x1080

Welcome to the Wayne
File Information
[img]http://lookpic.com/cdn/i2/t/0331202406501435-1.jpg[/img]
[img]http://lookpic.com/cdn/i2/t/0331202406501435-2.jpg[/img]
[img]http://lookpic.com/cdn/i2/t/0331202406501435-3.jpg[/img]

General
Unique ID                                : 81698099118465625385090682558538694395 (0x3D767B46CE8E5DC617AB1630DC09BEFB)
Complete name                            : Welcome to the Wayne S02E10 Whoever Controls the Wayne Controls the World 1080p AMZN WEB-DL DD2 0 H 264-NTb.mkv
Format                                   : Matroska
Format version                           : Version 4
File size                                : 694 MiB
Duration                                 : 22 min 43 s
Overall bit rate                         : 4 270 kb/s
Frame rate                               : 23.976 FPS
Writing application                      : mkvmerge v60.0.0 ('Are We Copies?') 64-bit
Writing library                          : libebml v1.4.2 + libmatroska v1.6.4

Video
ID                                       : 1
Format                                   : AVC
Format/Info                              : Advanced Video Codec
Format profile                           : High@L4
Format settings                          : CABAC / 4 Ref Frames
Format settings, CABAC                   : Yes
Format settings, Reference frames        : 4 frames
Codec ID                                 : V_MPEG4/ISO/AVC
Duration                                 : 22 min 43 s
Bit rate                                 : 4 044 kb/s
Width                                    : 1 920 pixels
Height                                   : 1 080 pixels
Display aspect ratio                     : 16:9
Frame rate mode                          : Constant
Frame rate                               : 23.976 (24000/1001) FPS
Color space                              : YUV
Chroma subsampling                       : 4:2:0
Bit depth                                : 8 bits
Scan type                                : Progressive
Bits/(Pixel*Frame)                       : 0.081
Stream size                              : 657 MiB (95%)
Default                                  : Yes
Forced                                   : No
Color range                              : Limited
Color primaries                          : BT.709
Transfer characteristics                 : BT.709
Matrix coefficients                      : BT.709

Audio
ID                                       : 2
Format                                   : E-AC-3
Format/Info                              : Enhanced AC-3
Commercial name                          : Dolby Digital Plus
Codec ID                                 : A_EAC3
Duration                                 : 22 min 43 s
Bit rate mode                            : Constant
Bit rate                                 : 224 kb/s
Channel(s)                               : 2 channels
Channel layout                           : L R
Sampling rate                            : 48.0 kHz
Frame rate                               : 31.250 FPS (1536 SPF)
Compression mode                         : Lossy
Stream size                              : 36.4 MiB (5%)
Language                                 : English (US)
Service kind                             : Complete Main
Default                                  : Yes
Forced                                   : No

Text #1
ID                                       : 3
Format                                   : UTF-8
Codec ID                                 : S_TEXT/UTF8
Codec ID/Info                            : UTF-8 Plain Text
Duration                                 : 22 min 32 s
Bit rate                                 : 74 b/s
Frame rate                               : 0.357 FPS
Count of elements                        : 483
Stream size                              : 12.3 KiB (0%)
Language                                 : English (US)
Default                                  : No
Forced                                   : No

Text #2
ID                                       : 4
Format                                   : UTF-8
Codec ID                                 : S_TEXT/UTF8
Codec ID/Info                            : UTF-8 Plain Text
Duration                                 : 22 min 32 s
Bit rate                                 : 85 b/s
Frame rate                               : 0.426 FPS
Count of elements                        : 576
Stream size                              : 14.1 KiB (0%)
Title                                    : SDH
Language                                 : English (US)
Default                                  : No
Forced                                   : No



Download
File Container: MKV
Video/Audio Codec: H264 (HIGH) EAC3
Video Resolution: 1920x1080
Please Login to post a comment.
If you don't have any account, please Register.
  • Subscribe my Feeds
  • Facebook
Encoding Queue:  x264  x265

Latest Episodes

Popular Movies and TV Shows

  • WWE Smackdown!
  • The Abyss
  • Creed III
  • Argylle
  • Beyond Paradise
  • Law & Order: Organized Crime
  • Law & Order Toronto: Criminal Intent
  • Young Sheldon
  • Man on Fire
  • The Untouchables
  • The Greatest Hits
  • Fallout
  • Damaged
  • Sugar
  • LaRoy, Texas
  • Franklin
  • Four Souls of Coyote
  • Elsbeth
  • A Gentleman in Moscow
  • Ghosts
  • Parachute
  • 10 Lives
  • Untitled Woody Woodpecker
  • Star Trek: Discovery
  • FBI

Recent Comments

  • theahtisham:

    Kindly upload Ep. 3 and 4 as well.

  • Kudzu: Update on sound issue, File's codec info says stereo but is only a the left channel If I switch i...
  • Admin:

    kang
    Getting error while encoding, sorry

  • rambaldi70:

    sorry this release ok.
    but descripton is bad
    (Duration: 2h56m7s)

  • mentalityx:

    Thx bloke.

  • Cinemoan: I've been getting the same error message as budo here - There's no rhyme or reason to when it pops u...

Archives