Sign Up   |   Sign In  
House of the DragonNCISReturn to Never LandNow and ThenGhostlightRide Along 2My Adventures with Superman60 MinutesTwo Way StretchMythic QuestJack Whitehall: Settle DownCats in the MuseumMayor of KingstownWalkerHotel CocaineCalamity JaneOctopussyKiller Body CountInterview with the VampireThe Loud HouseYoung SheldonDaaaaaali!Kung Fu HustleLicence to KillThe Daily Show

Announcements

05/17

2024

1

Comments

Young Sheldon S07E13 Funeral 1080p AMZN WEB-DL DDP5 1 H 264-NTb
[RR/NF]
Size: 2.4GB 2 CDs mkv H264 (HIGH) / EAC3  HD  1920x1080

Young Sheldon
File Information
[img]http://lookpic.com/cdn/i2/t/0517202406164203-1.jpg[/img]
[img]http://lookpic.com/cdn/i2/t/0517202406164203-2.jpg[/img]
[img]http://lookpic.com/cdn/i2/t/0517202406164203-3.jpg[/img]

General
Unique ID                                : 330503886340130429922001374170908505580 (0xF8A4BBAF51415331FA51CEFB6B24B5EC)
Complete name                            : Young Sheldon S07E13 Funeral 1080p AMZN WEB-DL DDP5 1 H 264-NTb.mkv
Format                                   : Matroska
Format version                           : Version 4
File size                                : 1.22 GiB
Duration                                 : 21 min 20 s
Overall bit rate                         : 8 206 kb/s
Frame rate                               : 23.976 FPS
Writing application                      : mkvmerge v84.0 ('Sleeper') 64-bit
Writing library                          : libebml v1.4.5 + libmatroska v1.7.1

Video
ID                                       : 1
Format                                   : AVC
Format/Info                              : Advanced Video Codec
Format profile                           : High@L4
Format settings                          : CABAC / 4 Ref Frames
Format settings, CABAC                   : Yes
Format settings, Reference frames        : 4 frames
Codec ID                                 : V_MPEG4/ISO/AVC
Duration                                 : 21 min 20 s
Bit rate mode                            : Constant
Bit rate                                 : 7 564 kb/s
Nominal bit rate                         : 10 000 kb/s
Width                                    : 1 920 pixels
Height                                   : 1 080 pixels
Display aspect ratio                     : 16:9
Frame rate mode                          : Constant
Frame rate                               : 23.976 (24000/1001) FPS
Color space                              : YUV
Chroma subsampling                       : 4:2:0
Bit depth                                : 8 bits
Scan type                                : Progressive
Bits/(Pixel*Frame)                       : 0.152
Stream size                              : 1.13 GiB (92%)
Default                                  : Yes
Forced                                   : No
Color range                              : Limited
Color primaries                          : BT.709
Transfer characteristics                 : BT.709
Matrix coefficients                      : BT.709

Audio
ID                                       : 2
Format                                   : E-AC-3
Format/Info                              : Enhanced AC-3
Commercial name                          : Dolby Digital Plus
Codec ID                                 : A_EAC3
Duration                                 : 21 min 20 s
Bit rate mode                            : Constant
Bit rate                                 : 640 kb/s
Channel(s)                               : 6 channels
Channel layout                           : L R C LFE Ls Rs
Sampling rate                            : 48.0 kHz
Frame rate                               : 31.250 FPS (1536 SPF)
Compression mode                         : Lossy
Stream size                              : 97.7 MiB (8%)
Language                                 : English (US)
Service kind                             : Complete Main
Default                                  : Yes
Forced                                   : No

Text #1
ID                                       : 3
Format                                   : UTF-8
Codec ID                                 : S_TEXT/UTF8
Codec ID/Info                            : UTF-8 Plain Text
Duration                                 : 20 min 54 s
Bit rate                                 : 66 b/s
Frame rate                               : 0.336 FPS
Count of elements                        : 421
Stream size                              : 10.2 KiB (0%)
Language                                 : English (US)
Default                                  : No
Forced                                   : No

Text #2
ID                                       : 4
Format                                   : UTF-8
Codec ID                                 : S_TEXT/UTF8
Codec ID/Info                            : UTF-8 Plain Text
Duration                                 : 20 min 54 s
Bit rate                                 : 71 b/s
Frame rate                               : 0.361 FPS
Count of elements                        : 453
Stream size                              : 11.0 KiB (0%)
Title                                    : SDH
Language                                 : English (US)
Default                                  : No
Forced                                   : No



Download
File Container: MKV
Video/Audio Codec: H264 (HIGH) EAC3
Video Resolution: 1920x1080

1 Response to "[RR/NF] Young Sheldon S07E13 Funeral 1080p AMZN WEB-DL DDP5 1 H 264-NTb (2.4GB)"
05/17/24
07:22:46
ReadyPlayerOne

Thank You

Please Login to post a comment.
If you don't have any account, please Register.
  • Subscribe my Feeds
  • Facebook
Encoding Queue:  x264  x265

Latest Episodes

Popular Movies and TV Shows

  • House of the Dragon
  • NCIS
  • Return to Never Land
  • Now and Then
  • Ghostlight
  • Ride Along 2
  • My Adventures with Superman
  • 60 Minutes
  • Two Way Stretch
  • Mythic Quest
  • Jack Whitehall: Settle Down
  • Cats in the Museum
  • Mayor of Kingstown
  • Walker
  • Hotel Cocaine
  • Calamity Jane
  • Octopussy
  • Killer Body Count
  • Interview with the Vampire
  • The Loud House
  • Young Sheldon
  • Daaaaaali!
  • Kung Fu Hustle
  • Licence to Kill
  • The Daily Show

Recent Comments

Archives