Sign Up   |   Sign In  
The Bank ShotCSI: VegasExhumaRushThe ChiMasterChef AustraliaDawn of the Planet of the ApesDemon Slayer: Kimetsu no YaibaRise of the Planet of the ApesPlanet of the ApesSecrets and LiesAbove JusticeBeacon 23Interview with the VampireSaturday Night LivePhil Tippett: Mad Dreams and MonstersChallengersEverything PuppiesYoung SheldonStar Trek: DiscoveryBlue BloodsGodzilla x Kong: The New EmpireFletchForce of Nature: The Dry 2S.W.A.T.

Announcements

04/12

2024

1

Comments

A Gentleman in Moscow S01E03 A Gentleman in Moscow The Last Rostov 1080p AMZN WEB-DL DDP5 1 H 264-NTb
[RR/NF]
Size: 3.3GB mkv H264 (HIGH) / EAC3  HD  1920x1080

A Gentleman in Moscow
File Information
[img]http://lookpic.com/cdn/i2/t/0412202406243587-1.jpg[/img]
[img]http://lookpic.com/cdn/i2/t/0412202406243587-2.jpg[/img]
[img]http://lookpic.com/cdn/i2/t/0412202406243587-3.jpg[/img]

General
Unique ID                                : 49452399436469591425274371164074399361 (0x25342F895B5BEACFB28B161168A7D681)
Complete name                            : A Gentleman in Moscow S01E03 A Gentleman in Moscow The Last Rostov 1080p AMZN WEB-DL DDP5 1 H 264-NTb.mkv
Format                                   : Matroska
Format version                           : Version 4
File size                                : 3.31 GiB
Duration                                 : 47 min 28 s
Overall bit rate                         : 9 980 kb/s
Frame rate                               : 23.976 FPS
Writing application                      : mkvmerge v81.0 ('Milliontown') 64-bit
Writing library                          : libebml v1.4.4 + libmatroska v1.7.1

Video
ID                                       : 1
Format                                   : AVC
Format/Info                              : Advanced Video Codec
Format profile                           : High@L4
Format settings                          : CABAC / 4 Ref Frames
Format settings, CABAC                   : Yes
Format settings, Reference frames        : 4 frames
Codec ID                                 : V_MPEG4/ISO/AVC
Duration                                 : 47 min 28 s
Bit rate mode                            : Constant
Bit rate                                 : 9 338 kb/s
Nominal bit rate                         : 10 000 kb/s
Width                                    : 1 920 pixels
Height                                   : 1 080 pixels
Display aspect ratio                     : 16:9
Frame rate mode                          : Constant
Frame rate                               : 23.976 (24000/1001) FPS
Color space                              : YUV
Chroma subsampling                       : 4:2:0
Bit depth                                : 8 bits
Scan type                                : Progressive
Bits/(Pixel*Frame)                       : 0.188
Stream size                              : 3.10 GiB (94%)
Default                                  : Yes
Forced                                   : No
Color range                              : Limited
Color primaries                          : BT.709
Transfer characteristics                 : BT.709
Matrix coefficients                      : BT.709

Audio
ID                                       : 2
Format                                   : E-AC-3
Format/Info                              : Enhanced AC-3
Commercial name                          : Dolby Digital Plus
Codec ID                                 : A_EAC3
Duration                                 : 47 min 28 s
Bit rate mode                            : Constant
Bit rate                                 : 640 kb/s
Channel(s)                               : 6 channels
Channel layout                           : L R C LFE Ls Rs
Sampling rate                            : 48.0 kHz
Frame rate                               : 31.250 FPS (1536 SPF)
Compression mode                         : Lossy
Stream size                              : 217 MiB (6%)
Language                                 : English (US)
Service kind                             : Complete Main
Default                                  : Yes
Forced                                   : No

Text #1
ID                                       : 3
Format                                   : UTF-8
Codec ID                                 : S_TEXT/UTF8
Codec ID/Info                            : UTF-8 Plain Text
Duration                                 : 46 min 25 s
Bit rate                                 : 59 b/s
Frame rate                               : 0.237 FPS
Count of elements                        : 661
Stream size                              : 20.3 KiB (0%)
Language                                 : English (US)
Default                                  : No
Forced                                   : No

Text #2
ID                                       : 4
Format                                   : UTF-8
Codec ID                                 : S_TEXT/UTF8
Codec ID/Info                            : UTF-8 Plain Text
Duration                                 : 47 min 24 s
Bit rate                                 : 63 b/s
Frame rate                               : 0.260 FPS
Count of elements                        : 740
Stream size                              : 22.2 KiB (0%)
Title                                    : SDH
Language                                 : English (US)
Default                                  : No
Forced                                   : No



Download
File Container: MKV
Video/Audio Codec: H264 (HIGH) EAC3
Video Resolution: 1920x1080

1 Response to "[RR/NF] A Gentleman in Moscow S01E03 A Gentleman in Moscow The Last Rostov 1080p AMZN WEB-DL DDP5 1 H 264-NTb (3.3GB)"
04/12/24
09:48:09
ReadyPlayerOne

Thank You

Please Login to post a comment.
If you don't have any account, please Register.
  • Subscribe my Feeds
  • Facebook
Encoding Queue:  x264  x265

Latest Episodes

Popular Movies and TV Shows

  • The Bank Shot
  • CSI: Vegas
  • Exhuma
  • Rush
  • The Chi
  • MasterChef Australia
  • Dawn of the Planet of the Apes
  • Demon Slayer: Kimetsu no Yaiba
  • Rise of the Planet of the Apes
  • Planet of the Apes
  • Secrets and Lies
  • Above Justice
  • Beacon 23
  • Interview with the Vampire
  • Saturday Night Live
  • Phil Tippett: Mad Dreams and Monsters
  • Challengers
  • Everything Puppies
  • Young Sheldon
  • Star Trek: Discovery
  • Blue Bloods
  • Godzilla x Kong: The New Empire
  • Fletch
  • Force of Nature: The Dry 2
  • S.W.A.T.

Recent Comments

  • 23d1:

    not episode 4 it is episode 3

  • 23d1:

    not episode 4 it is episode 3

  • 23d1:

    not episode 4 it is episode 3

  • 23d1:

    not episode 4 it is episode 3

  • aaroz88:

    Trimas!!

  • mptoo: I don't often ask this, infact this would be the first time, but I don't suppose there is any chance...
  • Cinque_Persson:

    btw:
    quote /quote
    is broken

  • gabrielsyme:

    Sorry but where is the clicknupload link?

  • mike1204:

    Is this episode doomed??? The RMX avi version is only 12 minutes long!!!

  • waanaabe:

    Could PUSHING DAISES kindly be upoaded to CU? THANKS!

  • mentalityx:

    Thx bloke.

Archives