Sign Up   |   Sign In  

Announcements

Want to support us?
Buy a RapidRAR account from our resellers:
Buy or renew a NitroFlare account via THIS LINK

04/20

2017

1

Comments

Archer S08E03 1080p WEB-DL DD5 1 H264-RARBG
[RR/NF/UL/OL/OLw/UR]
Size: 791MB mkv H264 (HIGH) / AC3  HD  1920x1080

Archer
Click on the image to see full size
[RR/NF/UL/OL/OLw/UR] Archer S08E03 1080p WEB-DL DD5 1 H264-RARBG (791MB) - Snapshot 1
File Information
[URL=http://imagecurl.com/viewer.php?file=68380838530985469672.png][IMG]http://imagecurl.com/images/68380838530985469672_thumb.png[/IMG][/URL]
[URL=http://imagecurl.com/viewer.php?file=01212231398583443485.png][IMG]http://imagecurl.com/images/01212231398583443485_thumb.png[/IMG][/URL]
[URL=http://imagecurl.com/viewer.php?file=07682985200172237412.png][IMG]http://imagecurl.com/images/07682985200172237412_thumb.png[/IMG][/URL]
[URL=http://imagecurl.com/viewer.php?file=31896146961996107376.png][IMG]http://imagecurl.com/images/31896146961996107376_thumb.png[/IMG][/URL]



[mediainfo]
Video
ID                                       : 1
Format                                   : AVC
Format/Info                              : Advanced Video Codec
Format profile                           : [email protected]
Format settings, CABAC                   : Yes
Format settings, ReFrames                : 4 frames
Codec ID                                 : V_MPEG4/ISO/AVC
Duration                                 : 20mn 11s
Bit rate                                 : 4 985 Kbps
Width                                    : 1 920 pixels
Height                                   : 1 080 pixels
Display aspect ratio                     : 16:9
Frame rate mode                          : Constant
Frame rate                               : 23.976 (24000/1001) fps
Color space                              : YUV
Chroma subsampling                       : 4:2:0
Bit depth                                : 8 bits
Scan type                                : Progressive
Bits/(Pixel*Frame)                       : 0.100
Stream size                              : 720 MiB (91%)
Title                                    : Archer.S08E03.1080p.WEB-DL.DD5.1.H264-RARBG
Language                                 : English
Default                                  : Yes
Forced                                   : No
Color range                              : Limited
Color primaries                          : BT.709
Transfer characteristics                 : BT.709
Matrix coefficients                      : BT.709

Audio
ID                                       : 2
Format                                   : AC-3
Format/Info                              : Audio Coding 3
Mode extension                           : CM (complete main)
Format settings, Endianness              : Big
Codec ID                                 : A_AC3
Duration                                 : 20mn 11s
Bit rate mode                            : Constant
Bit rate                                 : 384 Kbps
Channel(s)                               : 6 channels
Channel positions                        : Front: L C R, Side: L R, LFE
Sampling rate                            : 48.0 KHz
Frame rate                               : 31.250 fps (1536 spf)
Compression mode                         : Lossy
Stream size                              : 55.5 MiB (7%)
Title                                    : Archer.S08E03.1080p.WEB-DL.DD5.1.H264-RARBG
Language                                 : English
Default                                  : Yes
Forced                                   : No

Text #1
ID                                       : 3
Format                                   : UTF-8
Codec ID                                 : S_TEXT/UTF8
Codec ID/Info                            : UTF-8 Plain Text
Language                                 : English
Default                                  : Yes
Forced                                   : No

Text #2
ID                                       : 4
Format                                   : UTF-8
Codec ID                                 : S_TEXT/UTF8
Codec ID/Info                            : UTF-8 Plain Text
Title                                    : SDH
Language                                 : English
Default                                  : No
Forced                                   : No



[/mediainfo]
Download
File Container: MKV
Video/Audio Codec: H264 (HIGH) AC3
Video Resolution: 1920x1080
 
 
 
 
 
Watch Online [MP4]

Show us some love

1 Response to "[RR/NF/UL/OL/OLw/UR] Archer S08E03 1080p WEB-DL DD5 1 H264-RARBG (791MB)"
05/20/17
02:10:11
Admin

RapidRAR re-uploaded with new RAR file(s) (users who couldn't download some parts need to download all parts again).

Leave a Comment

  • (never displayed)
  •  
        Members don't see captchas. Sign Up / Sign In
  • Notify me via email when someone responds.
  • Subscribe my Feeds
  • Facebook

Latest Episodes

Popular Movies and TV Shows

  • Arrow
  • Fargo
  • The 100
  • Logan
  • John Wick: Chapter 2
  • Dirty Dancing
  • The Handmaid's Tale
  • Archer
  • White Gold
  • The Assignment
  • Aftermath
  • Russian Lolita
  • Empire
  • Shots Fired
  • The Flash
  • Bonded by Blood 2
  • The Boss Baby
  • Eat Local
  • Prison Break: Sequel
  • The Americans
  • iZombie
  • The Last Face
  • Beauty and the Beast
  • Night of Something Strange
  • Better Call Saul

Recent Comments

  • Setius:

    Uploaded PLEASE

  • Setius:

    Ditto uploadedking
    PLEASE

  • Atoz:

    Hey, folks.
    Anyone know the reason for this repack?
    Thanks!

  • Atoz:

    Hey, folks.
    Anyone know the reason for this repack?
    Thanks!

  • Setius:

    uploaded please

  • enkno:

    The clicknupload link is undefined.

  • M1st3rN0b0d7:

    Please release x265,

    Thanks !

  • M1st3rN0b0d7:

    Please release x265,

    Thanks !

  • /.:

    Is 1080p coming?

  • alfa:

    thanks