Sign Up   |   Sign In  

Announcements

Want to support us?
Buy a RapidRAR account from our resellers:
Buy or renew a NitroFlare account via THIS LINK

04/18

2017

No

Comments

Better Call Saul S03E02 WEBRip x264-RARBG
[RR/NF/UL/OL/OLw/UR/CU]
Size: 452MB mp4 H264 (HIGH) (AVC1) / AAC (LC) (MP4A) 720x400

Better Call Saul
Click on the image to see full size
[RR/NF/UL/OL/OLw/UR/CU] Better Call Saul S03E02 WEBRip x264-RARBG (452MB) - Snapshot 1[RR/NF/UL/OL/OLw/UR/CU] Better Call Saul S03E02 WEBRip x264-RARBG (452MB) - Snapshot 2
File Information
[URL]http://www.imdb.com/title/tt3032476/[/URL]
[screenshots]
[URL=http://imagecurl.com/viewer.php?file=63603175780825267244.png][IMG]http://imagecurl.com/images/63603175780825267244_thumb.png[/IMG][/URL]
[URL=http://imagecurl.com/viewer.php?file=44672166569321202998.png][IMG]http://imagecurl.com/images/44672166569321202998_thumb.png[/IMG][/URL]
[URL=http://imagecurl.com/viewer.php?file=47839525143338553002.png][IMG]http://imagecurl.com/images/47839525143338553002_thumb.png[/IMG][/URL]
[URL=http://imagecurl.com/viewer.php?file=00574314148008944586.png][IMG]http://imagecurl.com/images/00574314148008944586_thumb.png[/IMG][/URL]
[URL=http://imagecurl.com/viewer.php?file=90010052804857795335.png][IMG]http://imagecurl.com/images/90010052804857795335_thumb.png[/IMG][/URL]

[/screenshots]


[mediainfo]
Video
ID                                       : 1
Format                                   : AVC
Format/Info                              : Advanced Video Codec
Format profile                           : [email protected]
Format settings, CABAC                   : Yes
Format settings, ReFrames                : 5 frames
Codec ID                                 : avc1
Codec ID/Info                            : Advanced Video Coding
Duration                                 : 51mn 36s
Bit rate                                 : 1 100 Kbps
Width                                    : 720 pixels
Height                                   : 400 pixels
Display aspect ratio                     : 16:9
Frame rate mode                          : Constant
Frame rate                               : 23.976 (24000/1001) fps
Color space                              : YUV
Chroma subsampling                       : 4:2:0
Bit depth                                : 8 bits
Scan type                                : Progressive
Bits/(Pixel*Frame)                       : 0.159
Stream size                              : 403 MiB (89%)
Title                                    : RARBG.COM - Better.Call.Saul.S03E02.WEBRip.x264-RARBG
Writing library                          : x264 core 148 r2597M e86f3a1
 Encoding settings                        : cabac=1 / ref=5 / deblock=1:-1:-1 / analyse=0x3:0x113 / me=umh / subme=9 / psy=1 / psy_rd=1.00:0.15 / mixed_ref=1 / me_range=16 / chroma_me=1 / trellis=2 / 8x8dct=1 / cqm=0 / deadz / fast pskip=1 / chroma_qp_offset=-3 / threads=12 / lookahead_threads=1 / sliced_threads=0 / nr=0 / decimate=1 / interlaced=0 / bluray_compat=0 / c / bframes=3 / b_pyramid=2 / b_adapt=2 / b_bias=0 / direct=3 / weightb=1 / open_gop=0 / weightp=2 / keyint=250 / keyint_min=23 / scenecut=40 / intra_refresh=0 / rc_lookahead=50 / rc=abr / mbtree=1 / bitrate=1100 / ratetol=1.0 / qcomp=0.60 / qpmin=0 / qpmax=69 / qpstep=4 / ip_ratio=1.40 / aq=1:1.00
Encoded date                             : UTC 2017-04-18 21:25:07
Tagged date                              : UTC 2017-04-18 21:25:07

Audio
ID                                       : 2
Format                                   : AAC
Format/Info                              : Advanced Audio Codec
Format profile                           : LC
Codec ID                                 : 40
Duration                                 : 51mn 36s
Bit rate mode                            : Constant
Bit rate                                 : 128 Kbps
Channel(s)                               : 2 channels
Channel positions                        : Front: L R
Sampling rate                            : 48.0 KHz
Frame rate                               : 46.875 fps (1024 spf)
Compression mode                         : Lossy
Stream size                              : 47.2 MiB (10%)
Title                                    : RARBG.COM - Better.Call.Saul.S03E02.WEBRip.x264-RARBG
Language                                 : English
Default                                  : Yes
Alternate group                          : 1
Encoded date                             : UTC 2017-04-18 21:25:07
Tagged date                              : UTC 2017-04-18 21:25:07



[/mediainfo]
Download
File Container: MP4
Video/Audio Codec: H264 (HIGH) (AVC1) AAC (LC) (MP4A)
Video Resolution: 720x400
 
 
 
 
 
 
Watch Online [MP4]

Show us some love

Leave a Comment

  • (never displayed)
  •  
        Members don't see captchas. Sign Up / Sign In
  • Notify me via email when someone responds.
  • Subscribe my Feeds
  • Facebook

Latest Episodes

Popular Movies and TV Shows

  • Pulse
  • Alien: Covenant
  • Queen of the South
  • Zoo
  • Spawn
  • The Circle
  • Private Eyes
  • The Night Shift
  • Nashville
  • Showgirls
  • Charlie Charlie
  • The Drowning
  • Suits
  • Game of Thrones
  • Saving Hope
  • B.C. Butcher
  • Lola
  • Going in Style
  • Salvation
  • Blood Drive
  • Snowfall
  • The Girl from the Song
  • Aditi Mittal: Things They Wouldn't Let Me Say
  • Colossal
  • Shooter

Recent Comments

  • thaone:

    Thanks

  • Me (not logged in version): I haven't watched the movie, but NO, ultraIMG is just the image host that RMZ uses, so that company ...
  • thaone:

    Awesome, Thanks

  • Exfso: Yep, sucked in it has Korean subs as well, will have to wait for one that does not have these.
  • mda:

    1080p HEVC Please

  • mda:

    1080p HEVC please

  • mda:

    Yes thx, could we please have a 1080p HEVC encoding?

  • thaone:

    Thanks

  • RockB: The screenshot shows Ultraimg written at the bottom. Does the entire movie have this hardcoded?
  • thaone:

    Thanks