Sign Up   |   Sign In  
Beacon 23Parish48 HoursNorth Korea: Inside the Mind of a DictatorScrambledWillowSaturday Night LiveImmoral WomenRiddle of FireA Gentleman in MoscowBlueyPacific Rim: UprisingBlue BloodsS.W.A.T.Grey's AnatomyThe War on ChildrenSleeping DogsTom and HuckFalloutFire CountryStar Trek: DiscoveryT2 TrainspottingWhiplashDamagedSugar

Announcements

03/01

2024

1

Comments

Chicago Fire S12E06 Port in the Storm 720p AMZN WEB-DL DDP5 1 H 264-FLUX
[RR/NF/CU]
Size: 1.2GB mkv H264 (HIGH) / EAC3  HD  1280x720

Chicago Fire
File Information
[img]http://lookpic.com/cdn/i2/t/0301202406360034-1.jpg[/img]
[img]http://lookpic.com/cdn/i2/t/0301202406360034-2.jpg[/img]
[img]http://lookpic.com/cdn/i2/t/0301202406360034-3.jpg[/img]

General
Unique ID                                : 184626602292830018155104279025856249149 (0x8AE5CA49CD375BB3F9206A9FD47B7D3D)
Complete name                            : Chicago.Fire.S12E06.Port.in.the.Storm.720p.AMZN.WEB-DL.DDP5.1.H.264-FLUX.mkv
Format                                   : Matroska
Format version                           : Version 4
File size                                : 1.22 GiB
Duration                                 : 41 min 37 s
Overall bit rate                         : 4 208 kb/s
Frame rate                               : 23.976 FPS
Writing application                      : mkvmerge v82.0 ('I'm The President') 64-bit
Writing library                          : libebml v1.4.5 + libmatroska v1.7.1

Video
ID                                       : 1
Format                                   : AVC
Format/Info                              : Advanced Video Codec
Format profile                           : High@L3.1
Format settings                          : CABAC / 4 Ref Frames
Format settings, CABAC                   : Yes
Format settings, Reference frames        : 4 frames
Codec ID                                 : V_MPEG4/ISO/AVC
Duration                                 : 41 min 37 s
Bit rate mode                            : Constant
Bit rate                                 : 3 566 kb/s
Nominal bit rate                         : 6 000 kb/s
Width                                    : 1 280 pixels
Height                                   : 720 pixels
Display aspect ratio                     : 16:9
Frame rate mode                          : Constant
Frame rate                               : 23.976 (24000/1001) FPS
Color space                              : YUV
Chroma subsampling                       : 4:2:0
Bit depth                                : 8 bits
Scan type                                : Progressive
Bits/(Pixel*Frame)                       : 0.161
Stream size                              : 1.04 GiB (85%)
Language                                 : English (US)
Default                                  : Yes
Forced                                   : No
Color range                              : Limited
Color primaries                          : BT.709
Transfer characteristics                 : BT.709
Matrix coefficients                      : BT.709

Audio
ID                                       : 2
Format                                   : E-AC-3
Format/Info                              : Enhanced AC-3
Commercial name                          : Dolby Digital Plus
Codec ID                                 : A_EAC3
Duration                                 : 41 min 37 s
Bit rate mode                            : Constant
Bit rate                                 : 640 kb/s
Channel(s)                               : 6 channels
Channel layout                           : L R C LFE Ls Rs
Sampling rate                            : 48.0 kHz
Frame rate                               : 31.250 FPS (1536 SPF)
Compression mode                         : Lossy
Stream size                              : 191 MiB (15%)
Language                                 : English
Service kind                             : Complete Main
Default                                  : Yes
Forced                                   : No

Text #1
ID                                       : 3
Format                                   : UTF-8
Codec ID                                 : S_TEXT/UTF8
Codec ID/Info                            : UTF-8 Plain Text
Duration                                 : 39 min 59 s
Bit rate                                 : 78 b/s
Frame rate                               : 0.317 FPS
Count of elements                        : 761
Stream size                              : 23.0 KiB (0%)
Language                                 : English (US)
Default                                  : No
Forced                                   : No

Text #2
ID                                       : 4
Format                                   : UTF-8
Codec ID                                 : S_TEXT/UTF8
Codec ID/Info                            : UTF-8 Plain Text
Duration                                 : 41 min 29 s
Bit rate                                 : 80 b/s
Frame rate                               : 0.341 FPS
Count of elements                        : 850
Stream size                              : 24.3 KiB (0%)
Title                                    : SDH
Language                                 : English (US)
Default                                  : No
Forced                                   : No

Menu
00:00:00.000                             : en:Scene 1
00:40:54.000                             : en:End Credits



Download
File Container: MKV
Video/Audio Codec: H264 (HIGH) EAC3
Video Resolution: 1280x720

1 Response to "[RR/NF/CU] Chicago Fire S12E06 Port in the Storm 720p AMZN WEB-DL DDP5 1 H 264-FLUX (1.2GB)"
03/01/24
08:28:03
ReadyPlayerOne

Thank You

Please Login to post a comment.
If you don't have any account, please Register.
  • Subscribe my Feeds
  • Facebook
Encoding Queue:  x264  x265

Latest Episodes

Popular Movies and TV Shows

  • Beacon 23
  • Parish
  • 48 Hours
  • North Korea: Inside the Mind of a Dictator
  • Scrambled
  • Willow
  • Saturday Night Live
  • Immoral Women
  • Riddle of Fire
  • A Gentleman in Moscow
  • Bluey
  • Pacific Rim: Uprising
  • Blue Bloods
  • S.W.A.T.
  • Grey's Anatomy
  • The War on Children
  • Sleeping Dogs
  • Tom and Huck
  • Fallout
  • Fire Country
  • Star Trek: Discovery
  • T2 Trainspotting
  • Whiplash
  • Damaged
  • Sugar

Recent Comments

  • DownloadHostInspector:

    so far these RMTeam uploads always have a working link. DownloadHostInspector approved!

  • DownloadHostInspector:

    ah yes, this upload has a host that works. clicknupload. DownloadHostInspector approved!

  • DownloadHostInspector: Why are all the download hosts trash? none of them let you download it
  • Qua4ratic:

    clicknupload link plz

  • ppoo:

    Please, can you add "Real Time with Bill Maher S22E11" ??

  • theahtisham:

    Kindly upload Ep. 3 and 4 as well.

  • Kudzu: Update on sound issue, File's codec info says stereo but is only a the left channel If I switch i...
  • Admin:

    kang
    Getting error while encoding, sorry

  • rambaldi70:

    sorry this release ok.
    but descripton is bad
    (Duration: 2h56m7s)

Archives