Sign Up   |   Sign In  

Announcements

Want to support us?
Buy a RapidRAR account from our resellers:
Buy or renew a NitroFlare account via THIS LINK
We'll stop uploading files to Uploaded.net in December 2017.

04/17

2017

No

Comments

Chicago Justice S01E09 720p WEB-DL DD5 1 H264-RARBG
[RR/NF/UL/UR]
Size: 1.3GB mkv H264 (HIGH) / AC3  HD  1280x720

Chicago Justice
Click on the image to see full size
[RR/NF/UL/UR] Chicago Justice S01E09 720p WEB-DL DD5 1 H264-RARBG (1.3GB) - Snapshot 1
File Information
[URL=http://imagecurl.com/viewer.php?file=83522327961359846731.png][IMG]http://imagecurl.com/images/83522327961359846731_thumb.png[/IMG][/URL]
[URL=http://imagecurl.com/viewer.php?file=17843552470632038730.png][IMG]http://imagecurl.com/images/17843552470632038730_thumb.png[/IMG][/URL]
[URL=http://imagecurl.com/viewer.php?file=27958426853325035399.png][IMG]http://imagecurl.com/images/27958426853325035399_thumb.png[/IMG][/URL]
[URL=http://imagecurl.com/viewer.php?file=61901166324891201109.png][IMG]http://imagecurl.com/images/61901166324891201109_thumb.png[/IMG][/URL]
[URL=http://imagecurl.com/viewer.php?file=27076857472922778475.png][IMG]http://imagecurl.com/images/27076857472922778475_thumb.png[/IMG][/URL]
[URL=http://imagecurl.com/viewer.php?file=72514524937816657900.png][IMG]http://imagecurl.com/images/72514524937816657900_thumb.png[/IMG][/URL]



[mediainfo]
Video
ID                                       : 1
Format                                   : AVC
Format/Info                              : Advanced Video Codec
Format profile                           : [email protected]
Format settings, CABAC                   : No
Format settings, ReFrames                : 2 frames
Codec ID                                 : V_MPEG4/ISO/AVC
Duration                                 : 42mn 44s
Bit rate                                 : 3 986 Kbps
Width                                    : 1 280 pixels
Height                                   : 720 pixels
Display aspect ratio                     : 16:9
Frame rate mode                          : Constant
Frame rate                               : 23.976 (24000/1001) fps
Color space                              : YUV
Chroma subsampling                       : 4:2:0
Bit depth                                : 8 bits
Scan type                                : Progressive
Bits/(Pixel*Frame)                       : 0.180
Stream size                              : 1.19 GiB (89%)
Title                                    : Chicago.Justice.S01E09.720p.WEB-DL.DD5.1.H264-RARBG
Language                                 : English
Default                                  : Yes
Forced                                   : No
Color range                              : Limited
Color primaries                          : BT.709
Transfer characteristics                 : BT.709
Matrix coefficients                      : BT.709

Audio
ID                                       : 2
Format                                   : AC-3
Format/Info                              : Audio Coding 3
Mode extension                           : CM (complete main)
Format settings, Endianness              : Big
Codec ID                                 : A_AC3
Duration                                 : 42mn 44s
Bit rate mode                            : Constant
Bit rate                                 : 384 Kbps
Channel(s)                               : 6 channels
Channel positions                        : Front: L C R, Side: L R, LFE
Sampling rate                            : 48.0 KHz
Frame rate                               : 31.250 fps (1536 spf)
Compression mode                         : Lossy
Stream size                              : 117 MiB (9%)
Title                                    : Chicago.Justice.S01E09.720p.WEB-DL.DD5.1.H264-RARBG
Language                                 : English
Default                                  : Yes
Forced                                   : No

Text #1
ID                                       : 3
Format                                   : UTF-8
Codec ID                                 : S_TEXT/UTF8
Codec ID/Info                            : UTF-8 Plain Text
Language                                 : English
Default                                  : Yes
Forced                                   : No

Text #2
ID                                       : 4
Format                                   : UTF-8
Codec ID                                 : S_TEXT/UTF8
Codec ID/Info                            : UTF-8 Plain Text
Title                                    : SDH
Language                                 : English
Default                                  : No
Forced                                   : No



[/mediainfo]
Download
File Container: MKV
Video/Audio Codec: H264 (HIGH) AC3
Video Resolution: 1280x720
 
 
 
 

Show us some love

Leave a Comment

  • (never displayed)
  •  
        Members don't see captchas. Sign Up / Sign In
  • Notify me via email when someone responds.
  • Subscribe my Feeds
  • Facebook

Latest Episodes

Popular Movies and TV Shows

  • Arrow
  • Supernatural
  • Young Sheldon
  • Marie Curie
  • Terminator 2: Judgment Day
  • American Assassin
  • S.W.A.T.
  • Mom
  • No Activity
  • Snezhnaya koroleva 3. Ogon i led
  • Kiss and Kill
  • American Made
  • Mr. Robot
  • The Shannara Chronicles
  • The Good Neighbor
  • Legends of Tomorrow
  • Geostorm
  • Batman vs. Two-Face
  • SEAL Team
  • Stan Against Evil
  • Peaky Blinders
  • Hangman
  • Haunted
  • Taking Earth
  • The Flash

Recent Comments