Sign Up   |   Sign In  

Announcements

Want to support us?
Buy a RapidRAR account from our resellers:
Buy or renew a NitroFlare account via THIS LINK
We'll stop uploading files to Uploaded.net in December 2017.

06/17

2017

No

Comments

Dark Matter S03E03 1080p WEB-DL DD5 1 H264-RARBG
[RR/NF/UL/UR/CU]
Size: 1.6GB mkv H264 (HIGH) / AC3  HD  1920x1080

Dark Matter
Click on the image to see full size
[RR/NF/UL/UR/CU] Dark Matter S03E03 1080p WEB-DL DD5 1 H264-RARBG (1.6GB) - Snapshot 1
File Information
[URL=http://imagecurl.com/viewer.php?file=26767024786941366055.png][IMG]http://imagecurl.com/images/26767024786941366055_thumb.png[/IMG][/URL]
[URL=http://imagecurl.com/viewer.php?file=09846589665840832877.png][IMG]http://imagecurl.com/images/09846589665840832877_thumb.png[/IMG][/URL]
[URL=http://imagecurl.com/viewer.php?file=23691424643213974258.png][IMG]http://imagecurl.com/images/23691424643213974258_thumb.png[/IMG][/URL]
[URL=http://imagecurl.com/viewer.php?file=05372073947451197384.png][IMG]http://imagecurl.com/images/05372073947451197384_thumb.png[/IMG][/URL]
[URL=http://imagecurl.com/viewer.php?file=89688618288182565492.png][IMG]http://imagecurl.com/images/89688618288182565492_thumb.png[/IMG][/URL]
[URL=http://imagecurl.com/viewer.php?file=83231399082835026956.png][IMG]http://imagecurl.com/images/83231399082835026956_thumb.png[/IMG][/URL]



[mediainfo]
Video
ID                                       : 1
Format                                   : AVC
Format/Info                              : Advanced Video Codec
Format profile                           : [email protected]
Format settings, CABAC                   : Yes
Format settings, ReFrames                : 4 frames
Codec ID                                 : V_MPEG4/ISO/AVC
Duration                                 : 43 min 5 s
Bit rate                                 : 4 954 kb/s
Width                                    : 1 920 pixels
Height                                   : 1 080 pixels
Display aspect ratio                     : 16:9
Frame rate mode                          : Constant
Frame rate                               : 23.976 (24000/1001) FPS
Color space                              : YUV
Chroma subsampling                       : 4:2:0
Bit depth                                : 8 bits
Scan type                                : Progressive
Bits/(Pixel*Frame)                       : 0.100
Stream size                              : 1.49 GiB (91%)
Title                                    : Dark.Matter.S03E03.1080p.WEB-DL.DD5.1.H264-RARBG
Language                                 : English
Default                                  : Yes
Forced                                   : No
Color range                              : Limited
Color primaries                          : BT.709
Transfer characteristics                 : BT.709
Matrix coefficients                      : BT.709

Audio
ID                                       : 2
Format                                   : AC-3
Format/Info                              : Audio Coding 3
Format settings, Endianness              : Big
Codec ID                                 : A_AC3
Duration                                 : 43 min 5 s
Bit rate mode                            : Constant
Bit rate                                 : 384 kb/s
Channel(s)                               : 6 channels
Channel positions                        : Front: L C R, Side: L R, LFE
Sampling rate                            : 48.0 kHz
Frame rate                               : 31.250 FPS (1536 spf)
Bit depth                                : 16 bits
Compression mode                         : Lossy
Delay relative to video                  : -42 ms
Stream size                              : 118 MiB (7%)
Title                                    : Dark.Matter.S03E03.1080p.WEB-DL.DD5.1.H264-RARBG
Language                                 : English
Service kind                             : Complete Main
Default                                  : Yes
Forced                                   : No

Text #1
ID                                       : 3
Format                                   : UTF-8
Codec ID                                 : S_TEXT/UTF8
Codec ID/Info                            : UTF-8 Plain Text
Language                                 : English
Default                                  : Yes
Forced                                   : No

Text #2
ID                                       : 4
Format                                   : UTF-8
Codec ID                                 : S_TEXT/UTF8
Codec ID/Info                            : UTF-8 Plain Text
Title                                    : SDH
Language                                 : English
Default                                  : No
Forced                                   : No



[/mediainfo]
Download
File Container: MKV
Video/Audio Codec: H264 (HIGH) AC3
Video Resolution: 1920x1080
 
 
 
 
 

Show us some love

Leave a Comment

  • (never displayed)
  •  
        Members don't see captchas. Sign Up / Sign In
  • Notify me via email when someone responds.
  • Subscribe my Feeds
  • Facebook

Latest Episodes

Popular Movies and TV Shows

  • Mr. Robot
  • The Blacklist
  • The Shannara Chronicles
  • A Stork's Journey
  • Bears
  • Designated Survivor
  • SEAL Team
  • Riverdale
  • Modern Family
  • The Flash
  • South Park
  • Body Snatchers
  • American Made
  • The Dark Tower
  • Legends of Tomorrow
  • Lethal Weapon
  • American Horror Story
  • Upstream Color
  • War for the Planet of the Apes
  • Atomic Blonde
  • The Big Bang Theory
  • The Gifted
  • Supergirl
  • Fading Gigolo
  • Manifesto

Recent Comments

  • Vamps: This site is really going DOWN hill and FAST.The consistency of their releases (the 720p WEB-DL's ar...
  • thaone:

    Thank You

  • mamen:

    I think the file for the OL link is wrong.

  • ben/ben/ben: Also waiting for "Bad.Move.S01E05.720p.HDTV.x264-MTB" & "Bad.Move.S01E05.480p.HDT...
  • JAK:

    thanks

  • DrMashirito:

    thanks.

  • iker: Please, can you add "Bad.Move.S01E05.720p.HDTV.x264-MTB" & "Bad.Move.S01E05.480p....
  • op: openload changing your upload to mp4 format..pls change the upload settings. and rename your upload ...
  • DrMashirito:

    thx!!!

  • bearman:

    thanks