Sign Up   |   Sign In  

Announcements

Want to support us?
Buy a RapidRAR account from our resellers:
Buy or renew a NitroFlare account via THIS LINK

04/19

2017

No

Comments

Famous in Love S01E01 WEBRip x264-RARBG
[RR/NF/UL/OL/OLw/UR]
Size: 353MB mp4 H264 (HIGH) (AVC1) / AAC (LC) (MP4A) 720x400

Famous in Love
Click on the image to see full size
[RR/NF/UL/OL/OLw/UR] Famous in Love S01E01 WEBRip x264-RARBG (353MB) - Snapshot 1[RR/NF/UL/OL/OLw/UR] Famous in Love S01E01 WEBRip x264-RARBG (353MB) - Snapshot 2
File Information
[URL]http://www.imdb.com/title/tt4578474/[/URL]
[screenshots]
[URL=http://imagecurl.com/viewer.php?file=63299566682129125230.png][IMG]http://imagecurl.com/images/63299566682129125230_thumb.png[/IMG][/URL]
[URL=http://imagecurl.com/viewer.php?file=02866818631084248373.png][IMG]http://imagecurl.com/images/02866818631084248373_thumb.png[/IMG][/URL]
[URL=http://imagecurl.com/viewer.php?file=74403540654177420614.png][IMG]http://imagecurl.com/images/74403540654177420614_thumb.png[/IMG][/URL]
[URL=http://imagecurl.com/viewer.php?file=08883858786805408205.png][IMG]http://imagecurl.com/images/08883858786805408205_thumb.png[/IMG][/URL]

[/screenshots]


[mediainfo]
Video
ID                                       : 1
Format                                   : AVC
Format/Info                              : Advanced Video Codec
Format profile                           : [email protected]
Format settings, CABAC                   : Yes
Format settings, ReFrames                : 5 frames
Codec ID                                 : avc1
Codec ID/Info                            : Advanced Video Coding
Duration                                 : 40mn 14s
Bit rate                                 : 1 100 Kbps
Width                                    : 720 pixels
Height                                   : 400 pixels
Display aspect ratio                     : 16:9
Frame rate mode                          : Constant
Frame rate                               : 23.976 (24000/1001) fps
Color space                              : YUV
Chroma subsampling                       : 4:2:0
Bit depth                                : 8 bits
Scan type                                : Progressive
Bits/(Pixel*Frame)                       : 0.159
Stream size                              : 315 MiB (89%)
Title                                    : RARBG.COM - Famous.in.Love.S01E01.WEBRip.x264-RARBG
Writing library                          : x264 core 148 r2597M e86f3a1
 Encoding settings                        : cabac=1 / ref=5 / deblock=1:-1:-1 / analyse=0x3:0x113 / me=umh / subme=9 / psy=1 / psy_rd=1.00:0.15 / mixed_ref=1 / me_range=16 / chroma_me=1 / trellis=2 / 8x8dct=1 / cqm=0 / deadz / fast pskip=1 / chroma_qp_offset=-3 / threads=12 / lookahead_threads=1 / sliced_threads=0 / nr=0 / decimate=1 / interlaced=0 / bluray_compat=0 / c / bframes=3 / b_pyramid=2 / b_adapt=2 / b_bias=0 / direct=3 / weightb=1 / open_gop=0 / weightp=2 / keyint=250 / keyint_min=23 / scenecut=40 / intra_refresh=0 / rc_lookahead=50 / rc=abr / mbtree=1 / bitrate=1100 / ratetol=1.0 / qcomp=0.60 / qpmin=0 / qpmax=69 / qpstep=4 / ip_ratio=1.40 / aq=1:1.00
Language                                 : English
Encoded date                             : UTC 2017-04-19 05:52:19
Tagged date                              : UTC 2017-04-19 05:52:19

Audio
ID                                       : 2
Format                                   : AAC
Format/Info                              : Advanced Audio Codec
Format profile                           : LC
Codec ID                                 : 40
Duration                                 : 40mn 15s
Bit rate mode                            : Constant
Bit rate                                 : 128 Kbps
Channel(s)                               : 2 channels
Channel positions                        : Front: L R
Sampling rate                            : 48.0 KHz
Frame rate                               : 46.875 fps (1024 spf)
Compression mode                         : Lossy
Stream size                              : 36.9 MiB (10%)
Title                                    : RARBG.COM - Famous.in.Love.S01E01.WEBRip.x264-RARBG
Language                                 : English
Default                                  : Yes
Alternate group                          : 1
Encoded date                             : UTC 2017-04-19 05:52:19
Tagged date                              : UTC 2017-04-19 05:52:19



[/mediainfo]
Download
File Container: MP4
Video/Audio Codec: H264 (HIGH) (AVC1) AAC (LC) (MP4A)
Video Resolution: 720x400
 
 
 
 
 
Watch Online [MP4]

Show us some love

Leave a Comment

  • (never displayed)
  •  
        Members don't see captchas. Sign Up / Sign In
  • Notify me via email when someone responds.
  • Subscribe my Feeds
  • Facebook

Latest Episodes

Popular Movies and TV Shows

  • Doctor Who
  • Guardians of the Galaxy Vol. 2
  • Don't Fuck in the Woods
  • Julie's Greenroom
  • Come Together
  • Hap and Leonard
  • Kung-Fu Yoga
  • The Originals
  • The Devil's Advocate
  • Reign
  • Hawaii Five-0
  • Star Wars
  • Blue Bloods
  • Stan Lee's Lucky Man
  • Designated Survivor
  • The Night Watchmen
  • Scooby-Doo! Shaggy's Showdown
  • Monamour
  • The Big Bang Theory
  • Rosewood
  • The Blacklist
  • Voice from the Stone
  • Colossal
  • The Eagle Huntress
  • Arrow

Recent Comments

  • sami:

    Thx again, Be All End All.
    Subs it will be. Thx for your insights. . .

  • Scene123:

    All links dead .....Plz reupload new one

  • Be All End All: Sorry about the typos I cant half see small words i guess i need to get me a magnifying glass addon ...
  • Be All End All: The only subs I see are at subseance the movie is is English and Mandarin and These subs are not bes...
  • xDmOx: Download is broken on RapidRAR, please re-upload: The Powerpuff Girls 2016 S02E03 15 Minutes Of Fame...
  • sami: Thx for reply, Be All End All. Ok then. File size not important to me, just need decent english au...
  • Sabre: Missing episodes: Versailles.2015.S02E05.MULTi.1080p.HDTV.x264-SH0W Versailles.2015.S02E07.MULTi.108...
  • Be All End All: 1.The source tells the encoder how big too make it is all based on CRF value and it's not 2 GB it's...
  • Alien0:

    Thanks
    Please upload x265 version

  • sami:

    What the web needs is a 2gb mkv BRrip with english dub audio in 5.1 AC3. Anyone? Thx.