Sign Up   |   Sign In  

Announcements

Want to support us?
Buy a RapidRAR account from our resellers:
Buy or renew a NitroFlare account via THIS LINK

04/19

2017

No

Comments

Famous in Love S01E04 WEBRip x264-RARBG
[RR/NF/UL/OL/OLw/UR/CU]
Size: 338MB mp4 H264 (HIGH) (AVC1) / AAC (LC) (MP4A) 720x400

Famous in Love
Click on the image to see full size
[RR/NF/UL/OL/OLw/UR/CU] Famous in Love S01E04 WEBRip x264-RARBG (338MB) - Snapshot 1[RR/NF/UL/OL/OLw/UR/CU] Famous in Love S01E04 WEBRip x264-RARBG (338MB) - Snapshot 2
File Information
[URL]http://www.imdb.com/title/tt4578474/[/URL]
[screenshots]
[URL=http://imagecurl.com/viewer.php?file=75891167299906162049.png][IMG]http://imagecurl.com/images/75891167299906162049_thumb.png[/IMG][/URL]
[URL=http://imagecurl.com/viewer.php?file=07697479609134942001.png][IMG]http://imagecurl.com/images/07697479609134942001_thumb.png[/IMG][/URL]
[URL=http://imagecurl.com/viewer.php?file=50520001699552138689.png][IMG]http://imagecurl.com/images/50520001699552138689_thumb.png[/IMG][/URL]
[URL=http://imagecurl.com/viewer.php?file=57182175405992756690.png][IMG]http://imagecurl.com/images/57182175405992756690_thumb.png[/IMG][/URL]

[/screenshots]


[mediainfo]
Video
ID                                       : 1
Format                                   : AVC
Format/Info                              : Advanced Video Codec
Format profile                           : [email protected]
Format settings, CABAC                   : Yes
Format settings, ReFrames                : 5 frames
Codec ID                                 : avc1
Codec ID/Info                            : Advanced Video Coding
Duration                                 : 38mn 51s
Bit rate                                 : 1 100 Kbps
Width                                    : 720 pixels
Height                                   : 400 pixels
Display aspect ratio                     : 16:9
Frame rate mode                          : Constant
Frame rate                               : 23.976 (24000/1001) fps
Color space                              : YUV
Chroma subsampling                       : 4:2:0
Bit depth                                : 8 bits
Scan type                                : Progressive
Bits/(Pixel*Frame)                       : 0.159
Stream size                              : 301 MiB (89%)
Title                                    : RARBG.COM - Famous.in.Love.S01E04.WEBRip.x264-RARBG
Writing library                          : x264 core 148 r2597M e86f3a1
 Encoding settings                        : cabac=1 / ref=5 / deblock=1:-1:-1 / analyse=0x3:0x113 / me=umh / subme=9 / psy=1 / psy_rd=1.00:0.15 / mixed_ref=1 / me_range=16 / chroma_me=1 / trellis=2 / 8x8dct=1 / cqm=0 / deadz / fast pskip=1 / chroma_qp_offset=-3 / threads=12 / lookahead_threads=1 / sliced_threads=0 / nr=0 / decimate=1 / interlaced=0 / bluray_compat=0 / c / bframes=3 / b_pyramid=2 / b_adapt=2 / b_bias=0 / direct=3 / weightb=1 / open_gop=0 / weightp=2 / keyint=250 / keyint_min=23 / scenecut=40 / intra_refresh=0 / rc_lookahead=50 / rc=abr / mbtree=1 / bitrate=1100 / ratetol=1.0 / qcomp=0.60 / qpmin=0 / qpmax=69 / qpstep=4 / ip_ratio=1.40 / aq=1:1.00
Language                                 : English
Encoded date                             : UTC 2017-04-19 07:06:49
Tagged date                              : UTC 2017-04-19 07:06:49

Audio
ID                                       : 2
Format                                   : AAC
Format/Info                              : Advanced Audio Codec
Format profile                           : LC
Codec ID                                 : 40
Duration                                 : 38mn 51s
Bit rate mode                            : Constant
Bit rate                                 : 128 Kbps
Channel(s)                               : 2 channels
Channel positions                        : Front: L R
Sampling rate                            : 48.0 KHz
Frame rate                               : 46.875 fps (1024 spf)
Compression mode                         : Lossy
Stream size                              : 35.6 MiB (11%)
Title                                    : RARBG.COM - Famous.in.Love.S01E04.WEBRip.x264-RARBG
Language                                 : English
Default                                  : Yes
Alternate group                          : 1
Encoded date                             : UTC 2017-04-19 07:06:49
Tagged date                              : UTC 2017-04-19 07:06:49



[/mediainfo]
Download
File Container: MP4
Video/Audio Codec: H264 (HIGH) (AVC1) AAC (LC) (MP4A)
Video Resolution: 720x400
 
 
 
 
 
 
Watch Online [MP4]

Show us some love

Leave a Comment

  • (never displayed)
  •  
        Members don't see captchas. Sign Up / Sign In
  • Notify me via email when someone responds.
  • Subscribe my Feeds
  • Facebook

Latest Episodes

Popular Movies and TV Shows

  • Roman Empire: Reign of Blood
  • Gotham
  • Supergirl
  • Sea Rex 3D: Journey to a Prehistoric World
  • Homo sapiens
  • Two Hands
  • Better Call Saul
  • Quantico
  • Bates Motel
  • Fifty Shades Darker
  • Lulu
  • Koyaanisqatsi
  • Taken
  • A.P.B.
  • Dimension 404
  • After the Reality
  • Wolves at the Door
  • The Shape of Things
  • Outcast
  • Into the Badlands
  • Jane the Virgin
  • The Legend of Ben Hall
  • Logan
  • Legends of the Hidden Temple
  • Silicon Valley

Recent Comments

  • tchamast:

    Any chance for HEVCs of these? Thanks!

  • D3m0N81:

    Student (2016) - Can't locate English subtitles for this film. :-(

  • Alexander Ipfelkofer:

    waiting for last nights Monday Nights RAW

  • Buckshot:

    What is your touring schedule?

  • MahBoff:

    Thaynk yewwwwwww! :)

  • Vamps: AHHHHH, THANK YOU for the very informative explanation, that was awesome. Even included an answer t...
  • MahBoff:

    @admin: Is there going to be an RMT webrip in 720/265? Thanks!

  • MahBoff:

    TYSM for the webrip in 720/265!

  • korno:

    Reup pls

  • b007:

    Thank you for another great upload.