Sign Up   |   Sign In  
Inside No. 9RebusHidden CityDoctor WhoFletch LivesFletchS.W.A.T.A Gentleman in MoscowMaestroShe Is ConannNähtamatu võitlus8 Views of Lake BiwaYoung SheldonBlue BloodsFire CountryEasy RiderChallengers12.12: The DaySugarGrey's AnatomyStar Trek: DiscoveryGodzilla x Kong: The New EmpireMothers' InstinctAdagioElsbeth

Announcements

04/17

2024

1

Comments

FBI International S03E09 Rules of Blackjack 1080p AMZN WEB-DL DDP5 1 H 264-NTb
[RR/NF]
Size: 2.5GB mkv H264 (HIGH) / EAC3  HD  1920x1080

FBI: International
File Information
[img]http://lookpic.com/cdn/i2/t/0417202415060063-1.jpg[/img]
[img]http://lookpic.com/cdn/i2/t/0417202415060063-2.jpg[/img]
[img]http://lookpic.com/cdn/i2/t/0417202415060063-3.jpg[/img]

General
Unique ID                                : 146156956681233145435111077507991441229 (0x6DF4CE526E34C39A7216CF0BE6E98F4D)
Complete name                            : FBI.International.S03E09.Rules.of.Blackjack.1080p.AMZN.WEB-DL.DDP5.1.H.264-NTb.mkv
Format                                   : Matroska
Format version                           : Version 4
File size                                : 2.54 GiB
Duration                                 : 40 min 22 s
Overall bit rate                         : 9 000 kb/s
Frame rate                               : 23.976 FPS
Writing application                      : mkvmerge v81.0 ('Milliontown') 64-bit
Writing library                          : libebml v1.4.4 + libmatroska v1.7.1

Video
ID                                       : 1
Format                                   : AVC
Format/Info                              : Advanced Video Codec
Format profile                           : High@L4
Format settings                          : CABAC / 4 Ref Frames
Format settings, CABAC                   : Yes
Format settings, Reference frames        : 4 frames
Codec ID                                 : V_MPEG4/ISO/AVC
Duration                                 : 40 min 22 s
Bit rate mode                            : Constant
Bit rate                                 : 8 358 kb/s
Nominal bit rate                         : 10 000 kb/s
Width                                    : 1 920 pixels
Height                                   : 1 080 pixels
Display aspect ratio                     : 16:9
Frame rate mode                          : Constant
Frame rate                               : 23.976 (24000/1001) FPS
Color space                              : YUV
Chroma subsampling                       : 4:2:0
Bit depth                                : 8 bits
Scan type                                : Progressive
Bits/(Pixel*Frame)                       : 0.168
Stream size                              : 2.36 GiB (93%)
Default                                  : Yes
Forced                                   : No
Color range                              : Limited
Color primaries                          : BT.709
Transfer characteristics                 : BT.709
Matrix coefficients                      : BT.709

Audio
ID                                       : 2
Format                                   : E-AC-3
Format/Info                              : Enhanced AC-3
Commercial name                          : Dolby Digital Plus
Codec ID                                 : A_EAC3
Duration                                 : 40 min 22 s
Bit rate mode                            : Constant
Bit rate                                 : 640 kb/s
Channel(s)                               : 6 channels
Channel layout                           : L R C LFE Ls Rs
Sampling rate                            : 48.0 kHz
Frame rate                               : 31.250 FPS (1536 SPF)
Compression mode                         : Lossy
Stream size                              : 185 MiB (7%)
Language                                 : English (US)
Service kind                             : Complete Main
Default                                  : Yes
Forced                                   : No

Text #1
ID                                       : 3
Format                                   : UTF-8
Codec ID                                 : S_TEXT/UTF8
Codec ID/Info                            : UTF-8 Plain Text
Duration                                 : 39 min 34 s
Bit rate                                 : 72 b/s
Frame rate                               : 0.280 FPS
Count of elements                        : 665
Stream size                              : 21.0 KiB (0%)
Language                                 : English (US)
Default                                  : No
Forced                                   : No

Text #2
ID                                       : 4
Format                                   : UTF-8
Codec ID                                 : S_TEXT/UTF8
Codec ID/Info                            : UTF-8 Plain Text
Duration                                 : 40 min 15 s
Bit rate                                 : 76 b/s
Frame rate                               : 0.319 FPS
Count of elements                        : 771
Stream size                              : 22.6 KiB (0%)
Title                                    : SDH
Language                                 : English (US)
Default                                  : No
Forced                                   : No



Download
File Container: MKV
Video/Audio Codec: H264 (HIGH) EAC3
Video Resolution: 1920x1080

1 Response to "[RR/NF] FBI International S03E09 Rules of Blackjack 1080p AMZN WEB-DL DDP5 1 H 264-NTb (2.5GB)"
04/17/24
16:55:21
ReadyPlayerOne

Thank You

Please Login to post a comment.
If you don't have any account, please Register.
  • Subscribe my Feeds
  • Facebook
Encoding Queue:  x264  x265

Latest Episodes

Popular Movies and TV Shows

  • Inside No. 9
  • Rebus
  • Hidden City
  • Doctor Who
  • Fletch Lives
  • Fletch
  • S.W.A.T.
  • A Gentleman in Moscow
  • Maestro
  • She Is Conann
  • Nähtamatu võitlus
  • 8 Views of Lake Biwa
  • Young Sheldon
  • Blue Bloods
  • Fire Country
  • Easy Rider
  • Challengers
  • 12.12: The Day
  • Sugar
  • Grey's Anatomy
  • Star Trek: Discovery
  • Godzilla x Kong: The New Empire
  • Mothers' Instinct
  • Adagio
  • Elsbeth

Recent Comments

  • 23d1:

    not episode 4 it is episode 3

  • 23d1:

    not episode 4 it is episode 3

  • 23d1:

    not episode 4 it is episode 3

  • 23d1:

    not episode 4 it is episode 3

  • aaroz88:

    Trimas!!

  • mptoo: I don't often ask this, infact this would be the first time, but I don't suppose there is any chance...
  • Cinque_Persson:

    btw:
    quote /quote
    is broken

  • gabrielsyme:

    Sorry but where is the clicknupload link?

  • mike1204:

    Is this episode doomed??? The RMX avi version is only 12 minutes long!!!

  • waanaabe:

    Could PUSHING DAISES kindly be upoaded to CU? THANKS!

  • mentalityx:

    Thx bloke.

Archives