Sign Up   |   Sign In  
FBI: Most WantedFBI: InternationalWWE NXTRachel Feinstein: Big GuyLove, AgainGekijouban soushuuhen Ôbârôdo: Fushisha no ouThe RookieDark MatterFBIThe Fall GuyMoonedReptiliansWill TrentThe Cleaning LadyThe Good DoctorBoy Kills WorldThe Manchurian CandidateVisionsWWE RawThe SimpsonsThe VeilExpend4blesSeize Them!8 Found DeadYoung Sheldon

Announcements

04/10

2024

1

Comments

FBI Most Wanted S05E08 Supply Chain 720p AMZN WEB-DL DDP5 1 H 264-FLUX
[RR/NF/CU]
Size: 1.2GB mkv H264 (HIGH) / EAC3  HD  1280x720

FBI: Most Wanted
File Information
[img]http://lookpic.com/cdn/i2/t/0410202411094399-1.jpg[/img]
[img]http://lookpic.com/cdn/i2/t/0410202411094399-2.jpg[/img]
[img]http://lookpic.com/cdn/i2/t/0410202411094399-3.jpg[/img]

General
Unique ID                                : 280263054187379221699088013905102025835 (0xD2D8B36A052ABB8483625103BE12B46B)
Complete name                            : FBI Most Wanted S05E08 Supply Chain 720p AMZN WEB-DL DDP5 1 H 264-FLUX.mkv
Format                                   : Matroska
Format version                           : Version 4
File size                                : 1.19 GiB
Duration                                 : 42 min 41 s
Overall bit rate                         : 4 004 kb/s
Frame rate                               : 23.976 FPS
Writing application                      : mkvmerge v82.0 ('I'm The President') 64-bit
Writing library                          : libebml v1.4.5 + libmatroska v1.7.1

Video
ID                                       : 1
Format                                   : AVC
Format/Info                              : Advanced Video Codec
Format profile                           : High@L3.1
Format settings                          : CABAC / 4 Ref Frames
Format settings, CABAC                   : Yes
Format settings, Reference frames        : 4 frames
Codec ID                                 : V_MPEG4/ISO/AVC
Duration                                 : 42 min 41 s
Bit rate mode                            : Constant
Bit rate                                 : 3 362 kb/s
Nominal bit rate                         : 6 000 kb/s
Width                                    : 1 280 pixels
Height                                   : 720 pixels
Display aspect ratio                     : 16:9
Frame rate mode                          : Constant
Frame rate                               : 23.976 (24000/1001) FPS
Color space                              : YUV
Chroma subsampling                       : 4:2:0
Bit depth                                : 8 bits
Scan type                                : Progressive
Bits/(Pixel*Frame)                       : 0.152
Stream size                              : 1.00 GiB (84%)
Language                                 : English (US)
Default                                  : Yes
Forced                                   : No
Color range                              : Limited
Color primaries                          : BT.709
Transfer characteristics                 : BT.709
Matrix coefficients                      : BT.709

Audio
ID                                       : 2
Format                                   : E-AC-3
Format/Info                              : Enhanced AC-3
Commercial name                          : Dolby Digital Plus
Codec ID                                 : A_EAC3
Duration                                 : 42 min 41 s
Bit rate mode                            : Constant
Bit rate                                 : 640 kb/s
Channel(s)                               : 6 channels
Channel layout                           : L R C LFE Ls Rs
Sampling rate                            : 48.0 kHz
Frame rate                               : 31.250 FPS (1536 SPF)
Compression mode                         : Lossy
Stream size                              : 195 MiB (16%)
Language                                 : English
Service kind                             : Complete Main
Default                                  : Yes
Forced                                   : No

Text #1
ID                                       : 3
Format                                   : UTF-8
Codec ID                                 : S_TEXT/UTF8
Codec ID/Info                            : UTF-8 Plain Text
Duration                                 : 41 min 57 s
Bit rate                                 : 80 b/s
Frame rate                               : 0.320 FPS
Count of elements                        : 806
Stream size                              : 24.9 KiB (0%)
Language                                 : English (US)
Default                                  : No
Forced                                   : No

Text #2
ID                                       : 4
Format                                   : UTF-8
Codec ID                                 : S_TEXT/UTF8
Codec ID/Info                            : UTF-8 Plain Text
Duration                                 : 42 min 34 s
Bit rate                                 : 84 b/s
Frame rate                               : 0.355 FPS
Count of elements                        : 908
Stream size                              : 26.4 KiB (0%)
Title                                    : SDH
Language                                 : English (US)
Default                                  : No
Forced                                   : No

Menu
00:00:00.000                             : en:Scene 1
00:42:36.000                             : en:Outro



Download
File Container: MKV
Video/Audio Codec: H264 (HIGH) EAC3
Video Resolution: 1280x720

1 Response to "[RR/NF/CU] FBI Most Wanted S05E08 Supply Chain 720p AMZN WEB-DL DDP5 1 H 264-FLUX (1.2GB)"
04/10/24
13:58:22
ReadyPlayerOne

Thank You

Please Login to post a comment.
If you don't have any account, please Register.
  • Subscribe my Feeds
  • Facebook
Encoding Queue:  x264  x265

Latest Episodes

Popular Movies and TV Shows

  • FBI: Most Wanted
  • FBI: International
  • WWE NXT
  • Rachel Feinstein: Big Guy
  • Love, Again
  • Gekijouban soushuuhen Ôbârôdo: Fushisha no ou
  • The Rookie
  • Dark Matter
  • FBI
  • The Fall Guy
  • Mooned
  • Reptilians
  • Will Trent
  • The Cleaning Lady
  • The Good Doctor
  • Boy Kills World
  • The Manchurian Candidate
  • Visions
  • WWE Raw
  • The Simpsons
  • The Veil
  • Expend4bles
  • Seize Them!
  • 8 Found Dead
  • Young Sheldon

Recent Comments

  • OldMovies:

    Has Czech subtitles but not English. Need forced English for the foreign language parts.

  • PROFessorMorrynarty: Would it be possible to upload 'Lego masters Australia' Series 6 Episode 6 Please? It's the only one...
  • mentalityx:

    Thx mate.

  • Bud: Is the search engine down for everyone, or just me? It just says 'You're forbidden!' whenever I lo...
  • 23d1:

    not episode 4 it is episode 3

  • 23d1:

    not episode 4 it is episode 3

  • 23d1:

    not episode 4 it is episode 3

  • 23d1:

    not episode 4 it is episode 3

  • aaroz88:

    Trimas!!

  • mptoo: I don't often ask this, infact this would be the first time, but I don't suppose there is any chance...
  • Cinque_Persson:

    btw:
    quote /quote
    is broken

  • gabrielsyme:

    Sorry but where is the clicknupload link?

  • mike1204:

    Is this episode doomed??? The RMX avi version is only 12 minutes long!!!

Archives