Sign Up   |   Sign In  

Announcements

Want to support us?
Buy a RapidRAR account from our resellers:
Buy or renew a NitroFlare account via THIS LINK

06/19

2017

No

Comments

Fear The Walking Dead S03E04 1080p WEB-DL DD5 1 H264-RARBG
[RR/NF/UL/UR]
Size: 1.7GB mkv H264 (HIGH) / AC3  HD  1912x1072

Fear the Walking Dead
Click on the image to see full size
[RR/NF/UL/UR] Fear The Walking Dead S03E04 1080p WEB-DL DD5 1 H264-RARBG (1.7GB) - Snapshot 1
File Information
[URL=http://imagecurl.com/viewer.php?file=42089358748126062360.png][IMG]http://imagecurl.com/images/42089358748126062360_thumb.png[/IMG][/URL]
[URL=http://imagecurl.com/viewer.php?file=80137491775345061933.png][IMG]http://imagecurl.com/images/80137491775345061933_thumb.png[/IMG][/URL]
[URL=http://imagecurl.com/viewer.php?file=69792827996571860926.png][IMG]http://imagecurl.com/images/69792827996571860926_thumb.png[/IMG][/URL]
[URL=http://imagecurl.com/viewer.php?file=10106487988958472681.png][IMG]http://imagecurl.com/images/10106487988958472681_thumb.png[/IMG][/URL]
[URL=http://imagecurl.com/viewer.php?file=52832450348135126322.png][IMG]http://imagecurl.com/images/52832450348135126322_thumb.png[/IMG][/URL]
[URL=http://imagecurl.com/viewer.php?file=99862384431738563033.png][IMG]http://imagecurl.com/images/99862384431738563033_thumb.png[/IMG][/URL]



[mediainfo]
Video
ID                                       : 1
Format                                   : AVC
Format/Info                              : Advanced Video Codec
Format profile                           : [email protected]
Format settings, CABAC                   : Yes
Format settings, ReFrames                : 4 frames
Codec ID                                 : V_MPEG4/ISO/AVC
Duration                                 : 43 min 3 s
Bit rate                                 : 5 057 kb/s
Width                                    : 1 912 pixels
Height                                   : 1 072 pixels
Display aspect ratio                     : 16:9
Frame rate mode                          : Constant
Frame rate                               : 23.976 (24000/1001) FPS
Color space                              : YUV
Chroma subsampling                       : 4:2:0
Bit depth                                : 8 bits
Scan type                                : Progressive
Bits/(Pixel*Frame)                       : 0.103
Stream size                              : 1.52 GiB (91%)
Title                                    : Fear.The.Walking.Dead.S03E04.1080p.WEB-DL.DD5.1.H264-RARBG
Language                                 : English
Default                                  : Yes
Forced                                   : No
Color range                              : Limited
Color primaries                          : BT.709
Transfer characteristics                 : BT.709
Matrix coefficients                      : BT.709

Audio
ID                                       : 2
Format                                   : AC-3
Format/Info                              : Audio Coding 3
Format settings, Endianness              : Big
Codec ID                                 : A_AC3
Duration                                 : 43 min 3 s
Bit rate mode                            : Constant
Bit rate                                 : 384 kb/s
Channel(s)                               : 6 channels
Channel positions                        : Front: L C R, Side: L R, LFE
Sampling rate                            : 48.0 kHz
Frame rate                               : 31.250 FPS (1536 spf)
Bit depth                                : 16 bits
Compression mode                         : Lossy
Delay relative to video                  : -42 ms
Stream size                              : 118 MiB (7%)
Title                                    : Fear.The.Walking.Dead.S03E04.1080p.WEB-DL.DD5.1.H264-RARBG
Language                                 : Spanish
Service kind                             : Complete Main
Default                                  : Yes
Forced                                   : No

Text #1
ID                                       : 3
Format                                   : UTF-8
Codec ID                                 : S_TEXT/UTF8
Codec ID/Info                            : UTF-8 Plain Text
Language                                 : English
Default                                  : Yes
Forced                                   : No

Text #2
ID                                       : 4
Format                                   : UTF-8
Codec ID                                 : S_TEXT/UTF8
Codec ID/Info                            : UTF-8 Plain Text
Title                                    : SDH
Language                                 : English
Default                                  : No
Forced                                   : No



[/mediainfo]
Download
File Container: MKV
Video/Audio Codec: H264 (HIGH) AC3
Video Resolution: 1912x1072
 
 
 
 

Show us some love

Leave a Comment

  • (never displayed)
  •  
        Members don't see captchas. Sign Up / Sign In
  • Notify me via email when someone responds.
  • Subscribe my Feeds
  • Facebook

Latest Episodes

Popular Movies and TV Shows

  • Fargo
  • Moontrap: Target Earth
  • Kong: Skull Island
  • The Keepers
  • Is Genesis History?
  • Genius
  • Kingdom
  • Blood Drive
  • Miracle Beach
  • Dial M for Murder
  • iZombie
  • Ichi
  • Addicted to Porn: Chasing the Cardboard Butterfly
  • Good Witch
  • Pawn Stars
  • Queen Sugar
  • Frantz
  • Straw Dogs
  • Animal Kingdom
  • Better Call Saul
  • Beyond Sleep
  • Battlestar Galactica
  • Lopez
  • Hannie Caulder
  • Resident Evil: Vendetta

Recent Comments

  • Liberty:

    Thanks. $:)

  • SEASHORE 1: Please,Keep on the good work...Upload the "Downward Dog S01E05 Old 480p WEB-DL x264-RMTeam"...
  • melanie:

    Could you please do a x265 encode? Thanks

  • Mega: ClickNUpload and Openload are the fastest for free users, and no size, or bigger size limits. They b...
  • D3m0N81:

    thanks for the share

    cheers RMTeam

  • rgvda: It's not "Genius 2017 S01E10", It's "Genius 2017 S01E09-E10"... ("Genius 20...
  • Nk5672:

    Please upload in x265

  • komo:

    Thanks admin where is the first and second episode

  • alfa:

    Thanks

  • MeH: Thanks PS CRF=23.5 is better than CRF=24 but still way to go to CRF=22 which gives better quality an...