Sign Up   |   Sign In  
Beacon 23My Life Is MurderInterview with the VampireGaga Chromatica BallBob Marley: One LoveLooperThe Young OffendersThe Zone of InterestFBI: Most WantedAtlasSouth Park: The End of ObesitySound! EuphoniumRebusThe RookieCivil WarSouth ParkFuriosa: A Mad Max SagaKnox Goes AwayWWE NXTStar Trek: DiscoverySurvivorThe Fall Guy5lbs of PressureRed vs. Blue: RestorationThe Daily Show

Announcements

04/17

2024

No

Comments

Feud S02E01 Pilot 720p DSNP WEB-DL DD 5 1 H 264-playWEB
[RR/NF/CU]
Size: 1.4GB mkv H264 (HIGH) / EAC3  HD  1280x720

Feud
File Information
[img]http://lookpic.com/cdn/i2/t/0417202420342596-1.jpg[/img]
[img]http://lookpic.com/cdn/i2/t/0417202420342596-2.jpg[/img]
[img]http://lookpic.com/cdn/i2/t/0417202420342596-3.jpg[/img]

General
Unique ID                                : 244839398121285176682916421594527442108 (0xB8325A53C5874925EE5B97C619B624BC)
Complete name                            : Feud S02E01 Pilot 720p DSNP WEB-DL DD 5 1 H 264-playWEB.mkv
Format                                   : Matroska
Format version                           : Version 4
File size                                : 1.38 GiB
Duration                                 : 1 h 0 min
Overall bit rate mode                    : Variable
Overall bit rate                         : 3 270 kb/s
Frame rate                               : 23.976 FPS
Writing application                      : mkvmerge v83.0 ('Circle Of Friends') 64-bit
Writing library                          : libebml v1.4.5 + libmatroska v1.7.1

Video
ID                                       : 1
Format                                   : AVC
Format/Info                              : Advanced Video Codec
Format profile                           : High@L3.1
Format settings                          : CABAC / 4 Ref Frames
Format settings, CABAC                   : Yes
Format settings, Reference frames        : 4 frames
Codec ID                                 : V_MPEG4/ISO/AVC
Duration                                 : 1 h 0 min
Bit rate mode                            : Variable
Bit rate                                 : 3 009 kb/s
Maximum bit rate                         : 6 375 kb/s
Width                                    : 1 280 pixels
Height                                   : 720 pixels
Display aspect ratio                     : 16:9
Frame rate mode                          : Constant
Frame rate                               : 23.976 (24000/1001) FPS
Color space                              : YUV
Chroma subsampling                       : 4:2:0
Bit depth                                : 8 bits
Scan type                                : Progressive
Bits/(Pixel*Frame)                       : 0.136
Time code of first frame                 : 00:00:00:0000000000
Stream size                              : 1.27 GiB (92%)
Default                                  : Yes
Forced                                   : No
Color range                              : Limited
Color primaries                          : BT.709
Transfer characteristics                 : BT.709
Matrix coefficients                      : BT.709

Audio
ID                                       : 2
Format                                   : E-AC-3
Format/Info                              : Enhanced AC-3
Commercial name                          : Dolby Digital Plus
Codec ID                                 : A_EAC3
Duration                                 : 1 h 0 min
Bit rate mode                            : Constant
Bit rate                                 : 256 kb/s
Channel(s)                               : 6 channels
Channel layout                           : L R C LFE Ls Rs
Sampling rate                            : 48.0 kHz
Frame rate                               : 31.250 FPS (1536 SPF)
Compression mode                         : Lossy
Stream size                              : 111 MiB (8%)
Language                                 : English
Service kind                             : Complete Main
Default                                  : Yes
Forced                                   : No

Text #1
ID                                       : 3
Format                                   : UTF-8
Codec ID                                 : S_TEXT/UTF8
Codec ID/Info                            : UTF-8 Plain Text
Duration                                 : 58 min 38 s
Bit rate                                 : 65 b/s
Frame rate                               : 0.189 FPS
Count of elements                        : 666
Stream size                              : 28.2 KiB (0%)
Language                                 : Czech
Default                                  : No
Forced                                   : No

Text #2
ID                                       : 4
Format                                   : UTF-8
Codec ID                                 : S_TEXT/UTF8
Codec ID/Info                            : UTF-8 Plain Text
Duration                                 : 58 min 38 s
Bit rate                                 : 65 b/s
Frame rate                               : 0.212 FPS
Count of elements                        : 747
Stream size                              : 28.3 KiB (0%)
Language                                 : Danish
Default                                  : No
Forced                                   : No

Text #3
ID                                       : 5
Format                                   : UTF-8
Codec ID                                 : S_TEXT/UTF8
Codec ID/Info                            : UTF-8 Plain Text
Duration                                 : 58 min 38 s
Bit rate                                 : 73 b/s
Frame rate                               : 0.213 FPS
Count of elements                        : 749
Stream size                              : 31.8 KiB (0%)
Language                                 : German
Default                                  : No
Forced                                   : No

Text #4
ID                                       : 6
Format                                   : UTF-8
Codec ID                                 : S_TEXT/UTF8
Codec ID/Info                            : UTF-8 Plain Text
Duration                                 : 58 min 38 s
Bit rate                                 : 116 b/s
Frame rate                               : 0.207 FPS
Count of elements                        : 729
Stream size                              : 50.0 KiB (0%)
Language                                 : Greek
Default                                  : No
Forced                                   : No

Text #5
ID                                       : 7
Format                                   : UTF-8
Codec ID                                 : S_TEXT/UTF8
Codec ID/Info                            : UTF-8 Plain Text
Duration                                 : 56 min 40 s
Bit rate                                 : 72 b/s
Frame rate                               : 0.223 FPS
Count of elements                        : 758
Stream size                              : 30.0 KiB (0%)
Language                                 : English
Default                                  : No
Forced                                   : No

Text #6
ID                                       : 8
Format                                   : UTF-8
Codec ID                                 : S_TEXT/UTF8
Codec ID/Info                            : UTF-8 Plain Text
Duration                                 : 58 min 26 s
Bit rate                                 : 74 b/s
Frame rate                               : 0.233 FPS
Count of elements                        : 818
Stream size                              : 32.0 KiB (0%)
Title                                    : SDH
Language                                 : English
Default                                  : No
Forced                                   : No

Text #7
ID                                       : 9
Format                                   : UTF-8
Codec ID                                 : S_TEXT/UTF8
Codec ID/Info                            : UTF-8 Plain Text
Duration                                 : 58 min 38 s
Bit rate                                 : 64 b/s
Frame rate                               : 0.208 FPS
Count of elements                        : 731
Stream size                              : 27.9 KiB (0%)
Title                                    : Latin American
Language                                 : Spanish
Default                                  : No
Forced                                   : No

Text #8
ID                                       : 10
Format                                   : UTF-8
Codec ID                                 : S_TEXT/UTF8
Codec ID/Info                            : UTF-8 Plain Text
Duration                                 : 58 min 38 s
Bit rate                                 : 70 b/s
Frame rate                               : 0.211 FPS
Count of elements                        : 741
Stream size                              : 30.4 KiB (0%)
Title                                    : European
Language                                 : Spanish
Default                                  : No
Forced                                   : No

Text #9
ID                                       : 11
Format                                   : UTF-8
Codec ID                                 : S_TEXT/UTF8
Codec ID/Info                            : UTF-8 Plain Text
Duration                                 : 58 min 38 s
Bit rate                                 : 66 b/s
Frame rate                               : 0.209 FPS
Count of elements                        : 734
Stream size                              : 28.6 KiB (0%)
Language                                 : Finnish
Default                                  : No
Forced                                   : No

Text #10
ID                                       : 12
Format                                   : UTF-8
Codec ID                                 : S_TEXT/UTF8
Codec ID/Info                            : UTF-8 Plain Text
Duration                                 : 58 min 28 s
Bit rate                                 : 66 b/s
Frame rate                               : 0.247 FPS
Count of elements                        : 866
Stream size                              : 28.5 KiB (0%)
Title                                    : European
Language                                 : French
Default                                  : No
Forced                                   : No

Text #11
ID                                       : 13
Format                                   : UTF-8
Codec ID                                 : S_TEXT/UTF8
Codec ID/Info                            : UTF-8 Plain Text
Duration                                 : 58 min 38 s
Bit rate                                 : 68 b/s
Frame rate                               : 0.213 FPS
Count of elements                        : 748
Stream size                              : 29.5 KiB (0%)
Language                                 : Hungarian
Default                                  : No
Forced                                   : No

Text #12
ID                                       : 14
Format                                   : UTF-8
Codec ID                                 : S_TEXT/UTF8
Codec ID/Info                            : UTF-8 Plain Text
Duration                                 : 58 min 38 s
Bit rate                                 : 69 b/s
Frame rate                               : 0.212 FPS
Count of elements                        : 745
Stream size                              : 29.7 KiB (0%)
Language                                 : Italian
Default                                  : No
Forced                                   : No

Text #13
ID                                       : 15
Format                                   : UTF-8
Codec ID                                 : S_TEXT/UTF8
Codec ID/Info                            : UTF-8 Plain Text
Duration                                 : 1 h 0 min
Bit rate                                 : 57 b/s
Frame rate                               : 0.216 FPS
Count of elements                        : 778
Stream size                              : 25.1 KiB (0%)
Language                                 : Japanese
Default                                  : No
Forced                                   : No

Text #14
ID                                       : 16
Format                                   : UTF-8
Codec ID                                 : S_TEXT/UTF8
Codec ID/Info                            : UTF-8 Plain Text
Duration                                 : 1 h 0 min
Bit rate                                 : 74 b/s
Frame rate                               : 0.216 FPS
Count of elements                        : 779
Stream size                              : 32.6 KiB (0%)
Language                                 : Korean
Default                                  : No
Forced                                   : No

Text #15
ID                                       : 17
Format                                   : UTF-8
Codec ID                                 : S_TEXT/UTF8
Codec ID/Info                            : UTF-8 Plain Text
Duration                                 : 1 h 0 min
Bit rate                                 : 80 b/s
Frame rate                               : 0.232 FPS
Count of elements                        : 837
Stream size                              : 35.3 KiB (0%)
Title                                    : SDH
Language                                 : Korean
Default                                  : No
Forced                                   : No

Text #16
ID                                       : 18
Format                                   : UTF-8
Codec ID                                 : S_TEXT/UTF8
Codec ID/Info                            : UTF-8 Plain Text
Duration                                 : 58 min 38 s
Bit rate                                 : 62 b/s
Frame rate                               : 0.176 FPS
Count of elements                        : 620
Stream size                              : 26.8 KiB (0%)
Language                                 : Dutch
Default                                  : No
Forced                                   : No

Text #17
ID                                       : 19
Format                                   : UTF-8
Codec ID                                 : S_TEXT/UTF8
Codec ID/Info                            : UTF-8 Plain Text
Duration                                 : 58 min 38 s
Bit rate                                 : 64 b/s
Frame rate                               : 0.205 FPS
Count of elements                        : 721
Stream size                              : 27.9 KiB (0%)
Language                                 : Norwegian
Default                                  : No
Forced                                   : No

Text #18
ID                                       : 20
Format                                   : UTF-8
Codec ID                                 : S_TEXT/UTF8
Codec ID/Info                            : UTF-8 Plain Text
Duration                                 : 58 min 38 s
Bit rate                                 : 62 b/s
Frame rate                               : 0.208 FPS
Count of elements                        : 730
Stream size                              : 26.9 KiB (0%)
Language                                 : Polish
Default                                  : No
Forced                                   : No

Text #19
ID                                       : 21
Format                                   : UTF-8
Codec ID                                 : S_TEXT/UTF8
Codec ID/Info                            : UTF-8 Plain Text
Duration                                 : 58 min 38 s
Bit rate                                 : 65 b/s
Frame rate                               : 0.208 FPS
Count of elements                        : 733
Stream size                              : 28.1 KiB (0%)
Title                                    : Brazilian
Language                                 : Portuguese
Default                                  : No
Forced                                   : No

Text #20
ID                                       : 22
Format                                   : UTF-8
Codec ID                                 : S_TEXT/UTF8
Codec ID/Info                            : UTF-8 Plain Text
Duration                                 : 58 min 38 s
Bit rate                                 : 67 b/s
Frame rate                               : 0.211 FPS
Count of elements                        : 741
Stream size                              : 28.8 KiB (0%)
Title                                    : European
Language                                 : Portuguese
Default                                  : No
Forced                                   : No

Text #21
ID                                       : 23
Format                                   : UTF-8
Codec ID                                 : S_TEXT/UTF8
Codec ID/Info                            : UTF-8 Plain Text
Duration                                 : 58 min 38 s
Bit rate                                 : 70 b/s
Frame rate                               : 0.192 FPS
Count of elements                        : 675
Stream size                              : 30.2 KiB (0%)
Language                                 : Romanian
Default                                  : No
Forced                                   : No

Text #22
ID                                       : 24
Format                                   : UTF-8
Codec ID                                 : S_TEXT/UTF8
Codec ID/Info                            : UTF-8 Plain Text
Duration                                 : 58 min 38 s
Bit rate                                 : 64 b/s
Frame rate                               : 0.212 FPS
Count of elements                        : 747
Stream size                              : 27.7 KiB (0%)
Language                                 : Slovak
Default                                  : No
Forced                                   : No

Text #23
ID                                       : 25
Format                                   : UTF-8
Codec ID                                 : S_TEXT/UTF8
Codec ID/Info                            : UTF-8 Plain Text
Duration                                 : 58 min 38 s
Bit rate                                 : 66 b/s
Frame rate                               : 0.206 FPS
Count of elements                        : 723
Stream size                              : 28.6 KiB (0%)
Language                                 : Swedish
Default                                  : No
Forced                                   : No

Text #24
ID                                       : 26
Format                                   : UTF-8
Codec ID                                 : S_TEXT/UTF8
Codec ID/Info                            : UTF-8 Plain Text
Duration                                 : 58 min 38 s
Bit rate                                 : 68 b/s
Frame rate                               : 0.211 FPS
Count of elements                        : 744
Stream size                              : 29.6 KiB (0%)
Language                                 : Turkish
Default                                  : No
Forced                                   : No

Text #25
ID                                       : 27
Format                                   : UTF-8
Codec ID                                 : S_TEXT/UTF8
Codec ID/Info                            : UTF-8 Plain Text
Duration                                 : 1 h 0 min
Bit rate                                 : 64 b/s
Frame rate                               : 0.210 FPS
Count of elements                        : 759
Stream size                              : 28.5 KiB (0%)
Title                                    : Traditional
Language                                 : Chinese
Default                                  : No
Forced                                   : No

Menu
00:11:45.664                             : en:Intro
00:13:06.787                             : en:Scene 1
00:59:34.366                             : en:Credits



Download
File Container: MKV
Video/Audio Codec: H264 (HIGH) EAC3
Video Resolution: 1280x720
Please Login to post a comment.
If you don't have any account, please Register.
  • Subscribe my Feeds
  • Facebook
Encoding Queue:  x264  x265

Latest Episodes

Popular Movies and TV Shows

  • Beacon 23
  • My Life Is Murder
  • Interview with the Vampire
  • Gaga Chromatica Ball
  • Bob Marley: One Love
  • Looper
  • The Young Offenders
  • The Zone of Interest
  • FBI: Most Wanted
  • Atlas
  • South Park: The End of Obesity
  • Sound! Euphonium
  • Rebus
  • The Rookie
  • Civil War
  • South Park
  • Furiosa: A Mad Max Saga
  • Knox Goes Away
  • WWE NXT
  • Star Trek: Discovery
  • Survivor
  • The Fall Guy
  • 5lbs of Pressure
  • Red vs. Blue: Restoration
  • The Daily Show

Recent Comments

  • Rafi85: Hi thx for the 14th season. Is it possible to reupload some episodes plz they were removed. These ar...
  • KubrickFan:

    Any possibility of a fresh link for this?

  • GubeShitemon: This is a different movie to the artwork version. Not the Dylan McDermott film but the Ben Affleck f...
  • Wrapt: Hahahaha yeah right make a liar out of me but I was referring to comments made about a movie or an e...
  • Wrapt: Comments are not always appearing in the Recent Comments list after submitting a comment any reason ...
  • waanaabe:

    warning: speaks German Swedish and French for those without English subs...

  • spiker1961:

    The audio on this is a commentary track, not the actual film audio.

  • spiker1961:

    The audio on this is a commentary track, not the film audio.

  • DuranDuran: The MS PAT show - - Does anyone have BOTH the MS PAT show (SEASON 4) & (SEASON 3) that just cam...
  • newuser:

    need english subtitles

  • Demonz:

    WTH is this

    NO season info and parts 1-13

  • meyat74:

    please add if possible new episodes 5-6

  • DuranDuran: THE MS PAT show = Does anyone have BOTH the MS PAT show (SEASON 3)-and- (SEASON 4) that just came ou...
  • big_ralphie: Just sitting down to watch and, yes there are subtitles...in ITALIAN ONLY. ENGLISH subs might be hel...
  • Geependo:

    All links are dead

Archives