Sign Up   |   Sign In  

Announcements

Want to support us?
Buy a RapidRAR account from our resellers:
Buy or renew a NitroFlare account via THIS LINK

04/17

2017

No

Comments

Girls S06E10 WEBRip x264-RARBG
[RR/NF/UL/OL/OLw/UR]
Size: 265MB mp4 H264 (HIGH) (AVC1) / AAC (LC) (MP4A) 720x400

Girls
Click on the image to see full size
[RR/NF/UL/OL/OLw/UR] Girls S06E10 WEBRip x264-RARBG (265MB) - Snapshot 1[RR/NF/UL/OL/OLw/UR] Girls S06E10 WEBRip x264-RARBG (265MB) - Snapshot 2
File Information
[URL]http://www.imdb.com/title/tt1723816/[/URL]
[screenshots]
[URL=http://imagecurl.com/viewer.php?file=28521036127249178172.png][IMG]http://imagecurl.com/images/28521036127249178172_thumb.png[/IMG][/URL]
[URL=http://imagecurl.com/viewer.php?file=54902298693623785127.png][IMG]http://imagecurl.com/images/54902298693623785127_thumb.png[/IMG][/URL]
[URL=http://imagecurl.com/viewer.php?file=35673300427272275898.png][IMG]http://imagecurl.com/images/35673300427272275898_thumb.png[/IMG][/URL]

[/screenshots]


[mediainfo]
Video
ID                                       : 1
Format                                   : AVC
Format/Info                              : Advanced Video Codec
Format profile                           : [email protected]
Format settings, CABAC                   : Yes
Format settings, ReFrames                : 5 frames
Codec ID                                 : avc1
Codec ID/Info                            : Advanced Video Coding
Duration                                 : 30mn 57s
Bit rate                                 : 1 100 Kbps
Width                                    : 720 pixels
Height                                   : 400 pixels
Display aspect ratio                     : 16:9
Frame rate mode                          : Constant
Frame rate                               : 23.976 (24000/1001) fps
Color space                              : YUV
Chroma subsampling                       : 4:2:0
Bit depth                                : 8 bits
Scan type                                : Progressive
Bits/(Pixel*Frame)                       : 0.159
Stream size                              : 235 MiB (89%)
Title                                    : RARBG.COM - Girls.S06E10.WEBRip.x264-RARBG
Writing library                          : x264 core 148 r2597M e86f3a1
 Encoding settings                        : cabac=1 / ref=5 / deblock=1:-1:-1 / analyse=0x3:0x113 / me=umh / subme=9 / psy=1 / psy_rd=1.00:0.15 / mixed_ref=1 / me_range=16 / chroma_me=1 / trellis=2 / 8x8dct=1 / cqm=0 / deadz / fast pskip=1 / chroma_qp_offset=-3 / threads=12 / lookahead_threads=1 / sliced_threads=0 / nr=0 / decimate=1 / interlaced=0 / bluray_compat=0 / c / bframes=3 / b_pyramid=2 / b_adapt=2 / b_bias=0 / direct=3 / weightb=1 / open_gop=0 / weightp=2 / keyint=250 / keyint_min=23 / scenecut=40 / intra_refresh=0 / rc_lookahead=50 / rc=abr / mbtree=1 / bitrate=1100 / ratetol=1.0 / qcomp=0.60 / qpmin=0 / qpmax=69 / qpstep=4 / ip_ratio=1.40 / aq=1:1.00
Encoded date                             : UTC 2017-04-17 04:27:47
Tagged date                              : UTC 2017-04-17 04:27:47

Audio
ID                                       : 2
Format                                   : AAC
Format/Info                              : Advanced Audio Codec
Format profile                           : LC
Codec ID                                 : 40
Duration                                 : 30mn 57s
Bit rate mode                            : Constant
Bit rate                                 : 128 Kbps
Channel(s)                               : 2 channels
Channel positions                        : Front: L R
Sampling rate                            : 48.0 KHz
Frame rate                               : 46.875 fps (1024 spf)
Compression mode                         : Lossy
Stream size                              : 28.3 MiB (11%)
Title                                    : RARBG.COM - Girls.S06E10.WEBRip.x264-RARBG
Language                                 : English
Default                                  : Yes
Alternate group                          : 1
Encoded date                             : UTC 2017-04-17 04:27:47
Tagged date                              : UTC 2017-04-17 04:27:47



[/mediainfo]
Download
File Container: MP4
Video/Audio Codec: H264 (HIGH) (AVC1) AAC (LC) (MP4A)
Video Resolution: 720x400
 
 
 
 
 
Watch Online [MP4]

Show us some love

Leave a Comment

  • (never displayed)
  •  
        Members don't see captchas. Sign Up / Sign In
  • Notify me via email when someone responds.
  • Subscribe my Feeds
  • Facebook

Latest Episodes

Popular Movies and TV Shows

  • Suits
  • Salvation
  • The Sinner
  • Kim Dotcom: Caught in the Web
  • Bad Rap
  • The Savage Innocents
  • Blood Drive
  • Snowfall
  • Younger
  • Guardians of the Galaxy Vol. 2
  • My Blue Heaven
  • Game of Thrones
  • Marlon
  • Manhunt: Unabomber
  • All Eyez on Me
  • The Land Unknown
  • Megan Leavey
  • Shooter
  • Animal Kingdom
  • Time After Time
  • Starship Troopers: Traitor of Mars
  • Koe no katachi
  • Lowriders
  • Preacher

Recent Comments

  • Aiden:

    reup please

  • Aiden:

    reup please

  • kevin:

    @Admin If possible, please encode and post a 480p x264 RMTeam version. Thanks.

  • thaone:

    Thank You

  • thaone:

    Thank You

  • thaone:

    Thank You

  • scifibob: common guys caps have been ridicules of late with pics of cameras and other crap BUT THIS IS JUST D...
  • @TonyS: I've seen Openload convert a couple of MKV files to MP4. I'm not sure why this happens. Either ope...
  • TonyS: Openload has another WRONG FILE !!! MP4 475M instead of x265 and 146M file. What is going on with Op...
  • thaone:

    Thank You