Sign Up   |   Sign In  
Rebel Moon - Part Two: The ScargiverLaw & Order: Special Victims UnitElsbethLate Night with the DevilBlood for DustLaw & Order: Organized CrimeSugarYoung SheldonA Gentleman in MoscowAsphalt CityProblemistaRiver WildManhuntGhostsStar Trek: DiscoveryGhostbusters: Frozen EmpireThe Three Musketeers - Part II: MiladyThe ReaderAmerican Horror StoryFamily GuyThe Bold and the BeautifulYou Were Never Really HereGodzilla x Kong: The New EmpireLa margeThe Good Doctor

Announcements

02/29

2024

1

Comments

Halo S02E05 Aleria 720p AMZN WEB-DL DDP5 1 Atmos H 264-FLUX
[RR/NF/CU]
Size: 1.4GB mkv H264 (HIGH) / EAC3  HD  1280x720

Halo
File Information
[img]http://lookpic.com/cdn/i2/t/0229202410502188-1.jpg[/img]
[img]http://lookpic.com/cdn/i2/t/0229202410502188-2.jpg[/img]
[img]http://lookpic.com/cdn/i2/t/0229202410502188-3.jpg[/img]

General
Unique ID                                : 162941391256861981484673167795836460403 (0x7A955ED67A4DA44C6C3D0A3A02409D73)
Complete name                            : Halo.S02E05.Aleria.720p.AMZN.WEB-DL.DDP5.1.Atmos.H.264-FLUX.mkv
Format                                   : Matroska
Format version                           : Version 4
File size                                : 1.37 GiB
Duration                                 : 1 h 1 min
Overall bit rate                         : 3 176 kb/s
Frame rate                               : 23.976 FPS
Writing application                      : mkvmerge v81.0 ('Milliontown') 64-bit
Writing library                          : libebml v1.4.4 + libmatroska v1.7.1

Video
ID                                       : 1
Format                                   : AVC
Format/Info                              : Advanced Video Codec
Format profile                           : High@L3.1
Format settings                          : CABAC / 4 Ref Frames
Format settings, CABAC                   : Yes
Format settings, Reference frames        : 4 frames
Codec ID                                 : V_MPEG4/ISO/AVC
Duration                                 : 1 h 1 min
Bit rate mode                            : Constant
Bit rate                                 : 2 410 kb/s
Nominal bit rate                         : 4 000 kb/s
Width                                    : 1 280 pixels
Height                                   : 720 pixels
Display aspect ratio                     : 16:9
Frame rate mode                          : Constant
Frame rate                               : 23.976 (24000/1001) FPS
Color space                              : YUV
Chroma subsampling                       : 4:2:0
Bit depth                                : 8 bits
Scan type                                : Progressive
Bits/(Pixel*Frame)                       : 0.109
Stream size                              : 1.04 GiB (76%)
Language                                 : English (US)
Default                                  : Yes
Forced                                   : No
Color range                              : Limited
Color primaries                          : BT.709
Transfer characteristics                 : BT.709
Matrix coefficients                      : BT.709

Audio
ID                                       : 2
Format                                   : E-AC-3 JOC
Format/Info                              : Enhanced AC-3 with Joint Object Coding
Commercial name                          : Dolby Digital Plus with Dolby Atmos
Codec ID                                 : A_EAC3
Duration                                 : 1 h 1 min
Bit rate mode                            : Constant
Bit rate                                 : 768 kb/s
Channel(s)                               : 6 channels
Channel layout                           : L R C LFE Ls Rs
Sampling rate                            : 48.0 kHz
Frame rate                               : 31.250 FPS (1536 SPF)
Compression mode                         : Lossy
Delay relative to video                  : 5 s 439 ms
Stream size                              : 337 MiB (24%)
Language                                 : English (US)
Service kind                             : Complete Main
Default                                  : Yes
Forced                                   : No
Complexity index                         : 16
Number of dynamic objects                : 15
Bed channel count                        : 1 channel
Bed channel configuration                : LFE

Text #1
ID                                       : 3
Format                                   : UTF-8
Codec ID                                 : S_TEXT/UTF8
Codec ID/Info                            : UTF-8 Plain Text
Duration                                 : 41 min 23 s
Bit rate                                 : 7 b/s
Frame rate                               : 0.026 FPS
Count of elements                        : 64
Stream size                              : 2.15 KiB (0%)
Title                                    : Forced
Language                                 : English (US)
Default                                  : Yes
Forced                                   : Yes

Text #2
ID                                       : 4
Format                                   : UTF-8
Codec ID                                 : S_TEXT/UTF8
Codec ID/Info                            : UTF-8 Plain Text
Duration                                 : 59 min 12 s
Bit rate                                 : 42 b/s
Frame rate                               : 0.203 FPS
Count of elements                        : 721
Stream size                              : 18.6 KiB (0%)
Language                                 : English (US)
Default                                  : No
Forced                                   : No

Text #3
ID                                       : 5
Format                                   : UTF-8
Codec ID                                 : S_TEXT/UTF8
Codec ID/Info                            : UTF-8 Plain Text
Duration                                 : 1 h 1 min
Bit rate                                 : 47 b/s
Frame rate                               : 0.225 FPS
Count of elements                        : 830
Stream size                              : 21.5 KiB (0%)
Title                                    : SDH
Language                                 : English (US)
Default                                  : No
Forced                                   : No

Menu
00:00:05.439                             : en:Chapter 01
00:00:08.439                             : en:Intro
00:01:58.439                             : en:Chapter 02
00:08:23.439                             : en:Opening Credits
00:09:23.439                             : en:Chapter 03
01:00:24.439                             : en:Credits



Download
File Container: MKV
Video/Audio Codec: H264 (HIGH) EAC3
Video Resolution: 1280x720

1 Response to "[RR/NF/CU] Halo S02E05 Aleria 720p AMZN WEB-DL DDP5 1 Atmos H 264-FLUX (1.4GB)"
02/29/24
12:53:02
ReadyPlayerOne

Thank You

Please Login to post a comment.
If you don't have any account, please Register.
  • Subscribe my Feeds
  • Facebook
Encoding Queue:  x264  x265

Latest Episodes

Popular Movies and TV Shows

  • Rebel Moon - Part Two: The Scargiver
  • Law & Order: Special Victims Unit
  • Elsbeth
  • Late Night with the Devil
  • Blood for Dust
  • Law & Order: Organized Crime
  • Sugar
  • Young Sheldon
  • A Gentleman in Moscow
  • Asphalt City
  • Problemista
  • River Wild
  • Manhunt
  • Ghosts
  • Star Trek: Discovery
  • Ghostbusters: Frozen Empire
  • The Three Musketeers - Part II: Milady
  • The Reader
  • American Horror Story
  • Family Guy
  • The Bold and the Beautiful
  • You Were Never Really Here
  • Godzilla x Kong: The New Empire
  • La marge
  • The Good Doctor

Recent Comments

  • yopo:

    NitroFlare's link is missing !!!

  • yopo:

    NitroFlare's link is missing !!!

  • yopo:

    NitroFlare's link is missing !!!
    Clicknupload's link is missing !!!

  • yopo:

    NitroFlare's link is missing !!!

  • dragonnightfire: I have tried contacting Rapid Rar to find out what is going on with the server maintainance. I am no...
  • dragonnightfire:

    RR links dead on 5 eps

  • Draveren: hi. can we solve this "server under maintenance" stuff, already? if back in the day i'd ke...
  • Majnon: The links are dead. Please re-upload
  • timt:

    Anyone have the movie "Shoot" (1976) to post?

  • Nightshade: Hey, it appears at least the RMTeam separate episodes and ION's packs for the first two seasons of t...
  • Bigfishguy:

    There's no free option to download this video. Can someone please upload it to clicknupload?

  • timt:

    Junk

  • timt:

    CAM Audio

  • timt:

    Hard Coded SUMS! Russian, I Think.

  • ubirattan:

    Mandem um Fikper, por favor.

  • kellym2: No answer yet for my query - why all the episodes "server under maintenance" on some episo...
  • Majnon:

    Rapidrar links are dead :(

  • Rake:

    Loads of "Server is under maintenance" with RR theese days...

  • kellym2: Why am I getting "Server is in maintenance mode" on some episodes of a series and not on o...

Archives