Sign Up   |   Sign In  

Announcements

Want to support us?
Buy a RapidRAR account from our resellers:
Buy or renew a NitroFlare account via THIS LINK

04/19

2017

1

Comments

Intelligence US S01 WEB-DL x264-FGT
[RR/NF/UL]
Size: 4.7GB mp4 H264 (HIGH) (AVC1) / AAC (LC) (MP4A) 720x400 TV Pack

Intelligence
Click on the image to see full size
[RR/NF/UL] Intelligence US S01 WEB-DL x264-FGT (4.7GB) - Snapshot 1[RR/NF/UL] Intelligence US S01 WEB-DL x264-FGT (4.7GB) - Snapshot 2
File Information
[URL=http://imagecurl.com/viewer.php?file=39494295254909973703.png][IMG]http://imagecurl.com/images/39494295254909973703_thumb.png[/IMG][/URL]
[URL=http://imagecurl.com/viewer.php?file=75319839185394849924.png][IMG]http://imagecurl.com/images/75319839185394849924_thumb.png[/IMG][/URL]
[URL=http://imagecurl.com/viewer.php?file=20566656935012080721.png][IMG]http://imagecurl.com/images/20566656935012080721_thumb.png[/IMG][/URL]
[URL=http://imagecurl.com/viewer.php?file=96228856486970773432.png][IMG]http://imagecurl.com/images/96228856486970773432_thumb.png[/IMG][/URL]
[URL=http://imagecurl.com/viewer.php?file=67059535206113201273.png][IMG]http://imagecurl.com/images/67059535206113201273_thumb.png[/IMG][/URL]
[URL=http://imagecurl.com/viewer.php?file=92810514548332508694.png][IMG]http://imagecurl.com/images/92810514548332508694_thumb.png[/IMG][/URL]



[mediainfo]
Video
ID                                       : 1
Format                                   : AVC
Format/Info                              : Advanced Video Codec
Format profile                           : [email protected]
Format settings, CABAC                   : Yes
Format settings, ReFrames                : 5 frames
Codec ID                                 : avc1
Codec ID/Info                            : Advanced Video Coding
Duration                                 : 43mn 15s
Bit rate                                 : 1 100 Kbps
Width                                    : 720 pixels
Height                                   : 400 pixels
Display aspect ratio                     : 16:9
Frame rate mode                          : Constant
Frame rate                               : 23.976 (23976/1000) fps
Color space                              : YUV
Chroma subsampling                       : 4:2:0
Bit depth                                : 8 bits
Scan type                                : Progressive
Bits/(Pixel*Frame)                       : 0.159
Stream size                              : 339 MiB (89%)
Writing library                          : x264 core 148 r2748 97eaef2
 Encoding settings                        : cabac=1 / ref=5 / deblock=1:-1:-1 / analyse=0x3:0x113 / me=umh / subme=9 / psy=1 / psy_rd=1.00:0.15 / mixed_ref=1 / me_range=16 / chroma_me=1 / trellis=2 / 8x8dct=1 / cqm=0 / deadz / fast pskip=1 / chroma_qp_offset=-3 / threads=24 / lookahead_threads=2 / sliced_threads=0 / nr=0 / decimate=1 / interlaced=0 / bluray_compat=0 / c / bframes=3 / b_pyramid=2 / b_adapt=1 / b_bias=0 / direct=3 / weightb=1 / open_gop=0 / weightp=2 / keyint=250 / keyint_min=23 / scenecut=40 / intra_refresh=0 / rc_lookahead=50 / rc=abr / mbtree=1 / bitrate=1100 / ratetol=1.0 / qcomp=0.60 / qpmin=0 / qpmax=69 / qpstep=4 / ip_ratio=1.40 / aq=1:1.00
Language                                 : English

Audio
ID                                       : 2
Format                                   : AAC
Format/Info                              : Advanced Audio Codec
Format profile                           : LC
Codec ID                                 : 40
Duration                                 : 43mn 15s
Bit rate mode                            : Constant
Bit rate                                 : 128 Kbps
Channel(s)                               : 2 channels
Channel positions                        : Front: L R
Sampling rate                            : 48.0 KHz
Frame rate                               : 46.875 fps (1024 spf)
Compression mode                         : Lossy
Stream size                              : 39.6 MiB (10%)
Language                                 : English
Default                                  : Yes
Alternate group                          : 1



[/mediainfo]
Download
File Container: MP4
Video/Audio Codec: H264 (HIGH) (AVC1) AAC (LC) (MP4A)
Video Resolution: 720x400
 
 
 

Show us some love

1 Response to "[RR/NF/UL] Intelligence US S01 WEB-DL x264-FGT (4.7GB)"
04/21/17
02:12:22
stephen19

https://thevideo.me/rk2ze7u78914
https://thevideo.me/lyv1v8626gus
https://thevideo.me/4g6nen69kh2n
https://thevideo.me/zwbdjf1woagl
https://thevideo.me/zw0oyj1p3oml
https://thevideo.me/g9embt4grqzx
https://thevideo.me/wlz25vu5nhy3
https://thevideo.me/ydn0wrnwkxfi
https://thevideo.me/juvx7qvd1rgo
https://thevideo.me/iulpp0c9c4pj
https://thevideo.me/oe4sdjopympj
https://thevideo.me/buzzsx6p1cpx
https://thevideo.me/u6cxxfelmhwp

Leave a Comment

  • (never displayed)
  •  
        Members don't see captchas. Sign Up / Sign In
  • Notify me via email when someone responds.
  • Subscribe my Feeds
  • Facebook

Latest Episodes

Popular Movies and TV Shows

  • The Flash
  • Prison Break: Sequel
  • The Americans
  • Eat Local
  • John Wick: Chapter 2
  • Night of Something Strange
  • iZombie
  • Brooklyn Nine-Nine
  • Bull
  • Logan
  • The Laughing Mask
  • Grave
  • Better Call Saul
  • Gotham
  • Pretty Little Liars
  • Beauty and the Beast
  • The Devil's Candy
  • Trash Fire
  • Supergirl
  • Twin Peaks
  • Lucifer
  • Free Fire
  • Jonny's Sweet Revenge
  • The Wizard of Lies
  • Into the Badlands

Recent Comments

  • Suavecito: gracias amigo donde miero la paesa con dio siento mamacito por que taquitos musante bianco! Con teso...
  • majordan:

    get educated informed than that rubbish dark shit

  • BobBobBob:

    NOT Dark Angel (1990) as described, just some PBS flick !!!

  • BobBobBob:

    NOT Dark Angel (1990) as described, just some PBS flick !!!

  • Atoz: FYI: This video has hard-coded English subtitles. It also includes an additional Spanish-language ...
  • xDmOx:

    Would like a 1080p HEVC encode of this one please!

  • tdtk2: it's not in the encoding queue so a... 1080p x265 would be appreciated. thanks in advance.
  • yes.please:

    ? can we please get this as x265 and , or 480p ?thanks

  • thaone:

    Thanks

  • thaone:

    Thanks