Sign Up   |   Sign In  
Dune: Part TwoHundreds of BeaversOpenHouse NYCAbba: How They Won EurovisionTsukimichi: Moonlit FantasyThe Suitcase MurdersThe SympathizerTrackerThe Great NorthModel HouseKurt Cobain: Moments That Shook MusicThe Batman vs. DraculaWhen Calls the HeartSullivan's CrossingBeacon 23The ChannelThere's Still TomorrowTo Die ForFalloutShogunParishThe Taste of ThingsTrinket BoxFantastic Four: Rise of the Silver SurferFBI

Announcements

02/27

2024

1

Comments

Krapopolis S01E14 A Krapwork Orange 1080p HULU WEB-DL DDP5 1 H 264-NTb
[RR/NF/CU]
Size: 507MB mkv H264 (HIGH) / EAC3  HD  1920x1080

Krapopolis
File Information
[img]http://lookpic.com/cdn/i2/t/0226202415393081-1.jpg[/img]
[img]http://lookpic.com/cdn/i2/t/0226202415393081-2.jpg[/img]
[img]http://lookpic.com/cdn/i2/t/0226202415393081-3.jpg[/img]

General
Unique ID                                : 12294498574565746659514713652863907142 (0x93FD59465759EB2D849F95AC1AB3546)
Complete name                            : Krapopolis.S01E14.A.Krapwork.Orange.1080p.HULU.WEB-DL.DDP5.1.H.264-NTb.mkv
Format                                   : Matroska
Format version                           : Version 4
File size                                : 507 MiB
Duration                                 : 21 min 38 s
Overall bit rate                         : 3 277 kb/s
Frame rate                               : 23.976 FPS
Writing application                      : mkvmerge v80.0 ('Roundabout') 64-bit
Writing library                          : libebml v1.4.4 + libmatroska v1.7.1

Video
ID                                       : 1
Format                                   : AVC
Format/Info                              : Advanced Video Codec
Format profile                           : High@L4
Format settings                          : CABAC / 4 Ref Frames
Format settings, CABAC                   : Yes
Format settings, Reference frames        : 4 frames
Codec ID                                 : V_MPEG4/ISO/AVC
Duration                                 : 21 min 38 s
Bit rate                                 : 3 019 kb/s
Width                                    : 1 920 pixels
Height                                   : 1 080 pixels
Display aspect ratio                     : 16:9
Frame rate mode                          : Constant
Frame rate                               : 23.976 (24000/1001) FPS
Color space                              : YUV
Chroma subsampling                       : 4:2:0
Bit depth                                : 8 bits
Scan type                                : Progressive
Bits/(Pixel*Frame)                       : 0.061
Stream size                              : 467 MiB (92%)
Default                                  : Yes
Forced                                   : No

Audio
ID                                       : 2
Format                                   : E-AC-3
Format/Info                              : Enhanced AC-3
Commercial name                          : Dolby Digital Plus
Codec ID                                 : A_EAC3
Duration                                 : 21 min 38 s
Bit rate mode                            : Constant
Bit rate                                 : 256 kb/s
Channel(s)                               : 6 channels
Channel layout                           : L R C LFE Ls Rs
Sampling rate                            : 48.0 kHz
Frame rate                               : 31.250 FPS (1536 SPF)
Compression mode                         : Lossy
Stream size                              : 39.6 MiB (8%)
Language                                 : English
Service kind                             : Complete Main
Default                                  : Yes
Forced                                   : No

Text #1
ID                                       : 3
Format                                   : UTF-8
Codec ID                                 : S_TEXT/UTF8
Codec ID/Info                            : UTF-8 Plain Text
Duration                                 : 21 min 32 s
Bit rate                                 : 95 b/s
Frame rate                               : 0.394 FPS
Count of elements                        : 509
Stream size                              : 15.1 KiB (0%)
Language                                 : English
Default                                  : No
Forced                                   : No

Text #2
ID                                       : 4
Format                                   : UTF-8
Codec ID                                 : S_TEXT/UTF8
Codec ID/Info                            : UTF-8 Plain Text
Duration                                 : 21 min 34 s
Bit rate                                 : 100 b/s
Frame rate                               : 0.428 FPS
Count of elements                        : 554
Stream size                              : 15.9 KiB (0%)
Title                                    : SDH
Language                                 : English
Default                                  : No
Forced                                   : No

Menu
00:00:00.000                             : en:Chapter 1
00:06:40.011                             : en:Chapter 2
00:15:36.011                             : en:Chapter 3
00:20:24.012                             : en:Chapter 4



Download
File Container: MKV
Video/Audio Codec: H264 (HIGH) EAC3
Video Resolution: 1920x1080

1 Response to "[RR/NF/CU] Krapopolis S01E14 A Krapwork Orange 1080p HULU WEB-DL DDP5 1 H 264-NTb (507MB)"
02/27/24
01:57:25
ReadyPlayerOne

Thank you!

Please Login to post a comment.
If you don't have any account, please Register.
  • Subscribe my Feeds
  • Facebook
Encoding Queue:  x264  x265

Latest Episodes

Popular Movies and TV Shows

  • Dune: Part Two
  • Hundreds of Beavers
  • OpenHouse NYC
  • Abba: How They Won Eurovision
  • Tsukimichi: Moonlit Fantasy
  • The Suitcase Murders
  • The Sympathizer
  • Tracker
  • The Great North
  • Model House
  • Kurt Cobain: Moments That Shook Music
  • The Batman vs. Dracula
  • When Calls the Heart
  • Sullivan's Crossing
  • Beacon 23
  • The Channel
  • There's Still Tomorrow
  • To Die For
  • Fallout
  • Shogun
  • Parish
  • The Taste of Things
  • Trinket Box
  • Fantastic Four: Rise of the Silver Surfer
  • FBI

Recent Comments

  • Bud:

    Are you ever going to put up Thursday's episode with Liev Schreiber?

  • alp-engin:

    When will that maintenance be over? Please...

  • mentalityx:

    Rad bloke

  • DownloadHostInspector:

    so far these RMTeam uploads always have a working link. DownloadHostInspector approved!

  • DownloadHostInspector:

    ah yes, this upload has a host that works. clicknupload. DownloadHostInspector approved!

  • DownloadHostInspector: Why are all the download hosts trash? none of them let you download it
  • Qua4ratic:

    clicknupload link plz

  • ppoo:

    Please, can you add "Real Time with Bill Maher S22E11" ??

  • theahtisham:

    Kindly upload Ep. 3 and 4 as well.

Archives